Ивановский Торрент трекер
Яндекс.Погода
 

[Цитировать]
HUNTER

Нетерпимость / Intolerance: Love's Struggle Throughout the Ages- Год выпуска: 1916
Страна: США
Жанр: драма, исторический, немое кино
Продолжительность: 02:48:31
Перевод: Субтитры
Оригинальная аудиодорожка: музыкальное сопровождение
Cубтитры: Русские (leburs), английские интертитры-Режиссер: Дэвид Уорк Гриффит / D.W. Griffith
В ролях: Лиллиан Гиш, Споттисвуд Аиткен, Мэри Элден, Фрэнк Беннетт, Монте Блу, Уильям Х. Браун, Люсиль Браун, Элмер Клифтон, Мириам Купер, Жозефин Кроуэлл-Описание:
«Нетерпимость» — один из этапных в развитии мирового киноискусства; — это сложная сюжетная конструкция из четырех перемежающихся новелл, показывавших четыре различные эпохи. В ленте, снятой с грандиозным постановочным размахом, был затронут широкий круг философских и моральных проблем.
Нетерпимость трактована как зло, отравляющее жизнь во все времена и у всех народов. Обратившись к огромному историческому и мифологическому материалу, Гриффит использовал при его воплощении необычные для того времени кинематографические средства и приемы, определившие новаторское значение фильма.
Действие в нем происходит в Древнем Вавилоне, Иудее и Америке 1910-х гг. Главный эстетический и драматургический прием, положенный в основу фильма, — перекрестный монтаж, который комбинировал разновременные сцены в непрерывно нарастающем темпе.-За синхронизацию субтитров спасибо VitoVitelly.
| IMDb | Сэмпл-Качество: BDRip 720p (CtrlHD)
Контейнер: MKV
Видео: x264, 960x720 (1.33:1), 23.976 fps, 6762 kbps
Аудио: AC3 5.1, 48 kHz, 640 kbps
Формат субтитров: softsub (SRT)

Скриншоты

Source vs Encode


MI

nfo
.GENERAL iNFORMATiON
RUNTiME.......: 2h:48m
SiZE..........: 8.89 GB
ViDEO.CODEC...: x264, CRF18, L4.1
FRAMERATE.....: 23.976 fps
BiTRATE.......: 6763 Kbps
RESOLUTiON....: 960x720
AUDiO.........: English DD 5.1 @ 640kbps
SUBTiTLES.....: -
SUBS.FORMAT...: -
CHAPTERS......: Numbered and named like on Blu-ray
SOURCE........: Intolerance: Love's Struggle Throughout the Ages 1916 1080p Blu-ray AVC DTS-HD MA 5.1-ESiR
iMDB.RATiNG...: 7.9/10 (8,360 votes)
iMDB.LiNK.....: http://www.imdb.com/title/tt0006864/
.LOG
x264 [info]: frame I:1818 Avg QP:17.41 size: 95738
x264 [info]: frame P:45044 Avg QP:18.50 size: 52392
x264 [info]: frame B:195574 Avg QP:18.70 size: 31710
x264 [info]: consecutive B-frames: 3.4% 0.6% 2.4% 8.4% 12.9% 21.4% 23.0% 10.6% 17.1%
encoded 242436 frames, 4.78 fps, 6911.44 kb/s
General
Unique ID : 241173369395825618662735901827930660320 (0xB5704D27F2DCA738ADBAE14C9F361DE0)
Complete name :Intolerance Love's Struggle Throughout the Ages 1916 720p BluRay DD5.1 x264-CtrlHD.mkv
Format : Matroska
Format version : Version 2
File size : 8.89 GiB
Duration : 2h 48mn
Overall bit rate : 7 553 Kbps
Movie name : Intolerance / Нетерпимость (1916) – RuTracker
Encoded date : UTC 2014-10-15 19:53:28
Writing application : mkvmerge v7.0.0 ('Where We Going') 64bit built on Jun 9 2014 15:16:27
Writing library : libebml v1.3.0 + libmatroska v1.4.1
Attachment : Yes
Video
ID : 1
Format : AVC
Format/Info : Advanced Video Codec
Format profile : High@L4.1
Format settings, CABAC : Yes
Format settings, ReFrames : 12 frames
Codec ID : V_MPEG4/ISO/AVC
Duration : 2h 48mn
Bit rate : 6 762 Kbps
Width : 960 pixels
Height : 720 pixels
Display aspect ratio : 4:3
Frame rate mode : Constant
Frame rate : 23.976 fps
Color space : YUV
Chroma subsampling : 4:2:0
Bit depth : 8 bits
Scan type : Progressive
Bits/(Pixel*Frame) : 0.408
Stream size : 7.96 GiB (90%)
Title : Intolerance Love's Struggle Throughout the Ages 1916 720p BluRay DD5.1 x264-CtrlHD
Writing library : x264 core 133 r2334 a3ac64b
Encoding settings : cabac=1 / ref=12 / deblock=1:-3:-3 / analyse=0x3:0x113 / me=umh / subme=10 / psy=1 / psy_rd=1.10:0.00 / mixed_ref=1 / me_range=16 / chroma_me=1 / trellis=2 / 8x8dct=1 / cqm=0 / deadzone=21,11 / fast_pskip=0 / chroma_qp_offset=-2 / threads=6 / lookahead_threads=1 / sliced_threads=0 / nr=0 / decimate=0 / interlaced=0 / bluray_compat=0 / constrained_intra=0 / bframes=8 / b_pyramid=2 / b_adapt=2 / b_bias=0 / direct=3 / weightb=1 / open_gop=0 / weightp=2 / keyint=250 / keyint_min=23 / scenecut=40 / intra_refresh=0 / rc=crf / mbtree=0 / crf=18.0 / qcomp=0.80 / qpmin=0 / qpmax=69 / qpstep=4 / ip_ratio=1.20 / pb_ratio=1.10 / aq=1:0.60
Language : English
Default : Yes
Forced : No
Audio
ID : 2
Format : AC-3
Format/Info : Audio Coding 3
Mode extension : CM (complete main)
Format settings, Endianness : Big
Codec ID : A_AC3
Duration : 2h 48mn
Bit rate mode : Constant
Bit rate : 640 Kbps
Channel(s) : 6 channels
Channel positions : Front: L C R, Side: L R, LFE
Sampling rate : 48.0 KHz
Bit depth : 16 bits
Compression mode : Lossy
Stream size : 771 MiB (8%)
Title : Score by Carl Davis
Default : Yes
Forced : No
Text
ID : 3
Format : UTF-8
Codec ID : S_TEXT/UTF8
Codec ID/Info : UTF-8 Plain Text
Title : leburs
Language : Russian
Default : Yes
Forced : No
Menu
00:00:00.000 : en:01. "Out of the cradle endlessly rocking"
00:11:24.458 : en:02. A Hotbed of Intolerance
00:19:34.531 : en:03. The Mountain Girl
00:27:49.359 : en:04. STRIKE!
00:35:04.293 : en:05. The Marriage Market
00:45:26.874 : en:06. The Dear One
00:55:55.543 : en:07. The Web of Intolerance
01:04:10.121 : en:08. Reform as a Second Choice
01:15:55.701 : en:09. The Uplifters Investigate
01:25:48.126 : en:10. The Sword of War
01:40:37.973 : en:11. Act II
01:53:13.561 : en:12. Audience with the King
02:02:30.576 : en:13. Musketeer of the Slums
02:10:54.913 : en:14. Sentenced to Death
02:20:04.045 : en:15. The Massacre of St. Bartholomew
02:30:31.088 : en:16. Babylon's Last Bacchanal
02:42:16.585 : en:17. A New Day


Показать сообщения:    

Текущее время: 14-Дек 19:11

Часовой пояс: UTC ± 0


Вы не можете начинать темы
Вы не можете отвечать на сообщения
Вы не можете редактировать свои сообщения
Вы не можете удалять свои сообщения
Вы не можете голосовать в опросах
Вы не можете прикреплять файлы к сообщениям
Вы не можете скачивать файлы

!ВНИМАНИЕ!
Сайт не предоставляет электронные версии произведений, а занимается лишь коллекционированием и каталогизацией ссылок, присылаемых и публикуемых на форуме нашими читателями. Если вы являетесь правообладателем какого-либо представленного материала и не желаете, чтобы ссылка на него находилась в нашем каталоге, свяжитесь с нами, и мы незамедлительно удалим ее. Файлы для обмена на трекере предоставлены пользователями сайта, и администрация не несет ответственности за их содержание. Просьба не заливать файлы, защищенные авторскими правами, а также файлы нелегального содержания!