Важное объявление!
У Нас Все раздачи мультитрекерные, при нуле пиров в релизах, можете смело вставать на закачку!
 
Автор Сообщение

HUNTER

Стаж:
4 года 10 месяцев
Сообщений:
65570

Репутация: 101

[+] [-]
Вне форума [Профиль] [ЛС]

Нестихийное Бедствие Китая: Слезы Провинции Сычуань / China's Unnatural Disaster: The Tears of Sichuan Province-
Год выпуска: 2009
Страна: США | HBO Documentary Films
Жанр: Документальный
Продолжительность: 0:38:53
Перевод: Одноголосый закадровый | студия "NOVAMEDiA" по заказу "AMEDiA TV"
Режиссер: Джон Алперт / Jon Alpert, Мэттью О’Нилл / Matthew O'Neill-Описание: Фильм рассказывает о последствиях чудовищного землетрясения в Китае 12 мая 2008 года, в котором погибли 70 тысяч человек, из них 10 тысяч - дети. В провинции Сычуань родители оплакивают своих погибших детей. Учитывая действующую в Китае политику одного ребенка, многие потеряли единственных сына или дочь. Как уверяют авторы, причина такого числа жертв - коррупция и мошенничество местных властей.- -Автор рипа: lrn
Автор записи: Alexin29
Сэмпл: sendfile-Тип релиза: HDTVRip-AVC
Контейнер: MKV
Видео: 1024x576 (16:9), 25,000 fps, H264, ~1500 kbps avg, ~0.102 bit/pixel
Аудио#1: 48 kHz, AC3 Dolby Digital, 3/2 (L,C,R,l,r) + LFE ch, ~384.00 kbps avg | студия "NOVAMEDiA"
Аудио#2: 48 kHz, AC3 Dolby Digital, 2/0 (L,R) ch, ~192.00 kbps avg | Оригинал-

MediaInfo

GeneralUnique ID : 178517972202360114251140892692745889600 (0x864D4F9265789B329375396110DD2740)Complete name : E:\uTorrent.Temp\Temp\Chinas.Unnatural.Disaster.2009.HDTVRip-AVC.x264-RUS-ENG-lrn.mkvFormat : MatroskaFormat version : Version 4 / Version 2File size : 578 MiBDuration : 38mn 53sOverall bit rate : 2 078 KbpsMovie name : Chinas.Unnatural.Disaster.2009.HDTVRip-AVC.x264-RUS-ENG-lrnEncoded date : UTC 2010-02-22 21:41:31Writing application : mkvmerge v5.9.0 ('On The Loose') built on Dec 9 2012 15:37:01Writing library : libebml v1.3.0 + libmatroska v1.4.0
VideoID : 1Format : AVCFormat/Info : Advanced Video CodecFormat profile : High@L4.1Format settings, CABAC : YesFormat settings, ReFrames : 8 framesCodec ID : V_MPEG4/ISO/AVCDuration : 38mn 53sBit rate : 1 500 KbpsWidth : 1 024 pixelsHeight : 576 pixelsDisplay aspect ratio : 16:9Frame rate mode : ConstantFrame rate : 25.000 fpsColor space : YUVChroma subsampling : 4:2:0Bit depth : 8 bitsScan type : ProgressiveBits/(Pixel*Frame) : 0.102Stream size : 406 MiB (70%)Writing library : x264 core 142 r2479 dd79a61Encoding settings : cabac=1 / ref=8 / deblock=1:-3:-3 / analyse=0x3:0x133 / me=umh / subme=9 / psy=1 / psy_rd=1.00:0.00 / mixed_ref=1 / me_range=32 / chroma_me=1 / trellis=2 / 8x8dct=1 / cqm=0 / deadzone=21,11 / fast_pskip=1 / chroma_qp_offset=-2 / threads=12 / lookahead_threads=2 / sliced_threads=0 / nr=0 / decimate=1 / interlaced=0 / bluray_compat=0 / constrained_intra=0 / bframes=8 / b_pyramid=2 / b_adapt=2 / b_bias=0 / direct=3 / weightb=1 / open_gop=0 / weightp=2 / keyint=250 / keyint_min=25 / scenecut=40 / intra_refresh=0 / rc_lookahead=50 / rc=2pass / mbtree=1 / bitrate=1500 / ratetol=1.0 / qcomp=0.60 / qpmin=0 / qpmax=69 / qpstep=4 / cplxblur=20.0 / qblur=0.5 / vbv_maxrate=62500 / vbv_bufsize=78125 / nal_hrd=none / filler=0 / ip_ratio=1.40 / aq=1:1.00Default : YesForced : NoColor range : LimitedColor primaries : BT.709Transfer characteristics : BT.709Matrix coefficients : BT.709
Audio #1ID : 2Format : AC-3Format/Info : Audio Coding 3Mode extension : CM (complete main)Format settings, Endianness : BigCodec ID : A_AC3Duration : 38mn 53sBit rate mode : ConstantBit rate : 384 KbpsChannel(s) : 6 channelsChannel positions : Front: L C R, Side: L R, LFESampling rate : 48.0 KHzFrame rate : 31.250 fps (1536 spf)Compression mode : LossyDelay relative to video : 50msStream size : 107 MiB (18%)Language : RussianDefault : YesForced : Yes
Audio #2ID : 3Format : AC-3Format/Info : Audio Coding 3Mode extension : CM (complete main)Format settings, Endianness : BigCodec ID : A_AC3Duration : 38mn 53sBit rate mode : ConstantBit rate : 192 KbpsChannel(s) : 2 channelsChannel positions : Front: L RSampling rate : 48.0 KHzFrame rate : 31.250 fps (1536 spf)Compression mode : LossyDelay relative to video : 170msStream size : 53.4 MiB (9%)Language : EnglishDefault : NoForced : No

x264 log

raw [info]: 1024x576p 1:1 @ 25/1 fps (cfr)x264 [info]: using SAR=1/1x264 [info]: using cpu capabilities: MMX2 SSE2Fast SSSE3 SSE4.2 AVXx264 [info]: profile High, level 4.1x264 [info]: frame I:295 Avg QP:21.67 size: 52231x264 [info]: frame P:17462 Avg QP:25.56 size: 14415x264 [info]: frame B:40589 Avg QP:28.89 size: 4200x264 [info]: consecutive B-frames: 6.1% 9.1% 14.2% 34.0% 18.5% 13.3% 2.7% 1.2% 0.8%x264 [info]: mb I I16..4: 12.3% 69.0% 18.8%x264 [info]: mb P I16..4: 4.8% 12.9% 1.5% P16..4: 41.3% 12.1% 8.4% 0.3% 0.1% skip:18.7%x264 [info]: mb B I16..4: 0.5% 1.2% 0.2% B16..8: 37.0% 6.2% 1.4% direct: 3.0% skip:50.5% L0:40.7% L1:51.2% BI: 8.1%x264 [info]: 8x8 transform intra:67.1% inter:68.5%x264 [info]: direct mvs spatial:98.3% temporal:1.7%x264 [info]: coded y,uvDC,uvAC intra: 52.8% 51.1% 12.7% inter: 14.1% 10.5% 0.4%x264 [info]: i16 v,h,dc,p: 22% 24% 10% 45%x264 [info]: i8 v,h,dc,ddl,ddr,vr,hd,vl,hu: 10% 10% 10% 8% 12% 13% 14% 11% 13%x264 [info]: i4 v,h,dc,ddl,ddr,vr,hd,vl,hu: 11% 9% 5% 8% 15% 14% 15% 10% 14%x264 [info]: i8c dc,h,v,p: 43% 26% 17% 14%x264 [info]: Weighted P-Frames: Y:5.7% UV:2.0%x264 [info]: ref P L0: 57.2% 17.2% 13.3% 3.6% 3.0% 2.1% 2.0% 1.4% 0.3% 0.0%x264 [info]: ref B L0: 87.8% 6.6% 2.6% 1.2% 0.9% 0.6% 0.3%x264 [info]: ref B L1: 96.6% 3.4%x264 [info]: kb/s:1499.92encoded 58348 frames, 19.39 fps, 1499.92 kb/s

Скриншоты

-

_________________
Показать сообщения:    

Текущее время: Сегодня 23:36

Часовой пояс: GMT



Вы не можете начинать темы
Вы не можете отвечать на сообщения
Вы не можете редактировать свои сообщения
Вы не можете удалять свои сообщения
Вы не можете голосовать в опросах
Вы не можете прикреплять файлы к сообщениям
Вы не можете скачивать файлы