Ивановский Торрент трекер
Яндекс.Погода
 

[Цитировать]
HUNTER

- Год выпуска: 2009
Страна: Япония
Жанр: комедия, этти
Продолжительность: ТВ-сериал, 12 эп. + 1 спешл по 25 мин.-Перевод:
  • русские субтитры от Sonax & Servitor [TV 1-12]
  • русские субтитры от grobodel & Arkilleg [SP]
-Озвучка:
  • одноголосая (жен.) от Akikomi (KRT)
-Режиссер: Наканиси Нобуаки
Студия: Dogakobo-Описание:
Конец второго столетия новой эры не был для Древнего Китая ни тихим, ни мирным. На дворе стояли последние дни династии Хань. Центральная власть рушилась, князья и генералы точили зубы, чтобы урвать кусок побольше, на дорогах хозяйничали бандиты, народ мутили хитроумные даосы, а лихие наемники предлагали свои услуги всем и каждому. Только сериал не об этом, ибо уже второй сезон роли грозных владык, седовласых мудрецов и отважных воителей играют исключительно милые девушки, которые отчаянно ищут дружбу и любовь!
Первый сезон уже представил зрителям все классические фракции героев Троецарствия, так что теперь действие заметно оживилось. Три подруги – Кану, Тёхи и Тёун вместе с мудрой малышкой Комэй встречают искреннюю и непосредственную Рюби Гэнтоку – по слухам, наследницу побочной ветви императорской династии. Но фамильный меч Рюби украден, и теперь тесной компании придется отправиться по его следам в долгое путешествие с севера на юг – туда, где ждет будущее царство Шу!
© Hollow, World Art-Информационные ссылки: AniDB || World Art || MAL-Качество: BDRip
Энкод: Winter - RG Pantheon
Тип видео: без хардсаба
Формат: mkv
Видео: x264 (Hi10p), 1280x720, ~2700 Kbps, 23.976 fps
Аудио JAP: Vorbis, 48000Hz, ~256 Kbps, 2ch
Аудио RUS: AC3, 48000Hz, ~192 Kbps, 2ch (внешними файлами)-

Список эпизодов

01. Bachou's Anguish
02. Ryuubi Visits Touka Village
03. Kousonsan Fights Enshou
04. The Three Chou Sisters Acquire the "Crucial Keys to the Way of Peace"
05. Kakuka and Teiiku Come Into Sousou's Service
06. Ten'i is Tested by Sousou
07. Chinkyuu is Taken in by Ryofu
08. Enjutsu Orders a Monster's Extermination
09. Gakushin, Riten, and Ukin, Protect a Village
10. Koumei Wishes for a Sister
11. Bachou Tries to Hold it in
12. The Generals Attempt to Suppress the Yellow Turban Rebellion
SP. The Rival Chiefs Go on Vacation to a Southern Island

Скриншоты


Отличия от других раздач

http://rutracker.org/forum/viewtopic.php?t=2942058 - 720p

Подробные тех. данные

Общее
Уникальный идентификатор : 203271842951986469301994565898748545763 (0x98ECBBA097BF024BB1CA48637A53CAE3)
Полное имя : X:\[_ ГОТОВЫЕ РИПЫ\Shin Koihime Musou [BD] [720p]\[Winter] Shin Koihime Musou 02 [BDrip 1280x720 x264 Vorbis].mkv
Формат : Matroska
Версия формата : Version 2
Размер файла : 519 Мбайт
Продолжительность : 24 м.
Режим общего битрейта : Переменный
Общий поток : 2910 Кбит/сек
Дата кодирования : UTC 2014-02-17 17:38:02
Программа кодирования : mkvmerge v2.9.8 ('C'est le bon') built on Aug 13 2009 12:49:06
Библиотека кодирования : libebml v0.7.7 + libmatroska v0.8.1
Видео
Идентификатор : 1
Формат : AVC
Формат/Информация : Advanced Video Codec
Профиль формата : High 10@L4.1
Параметр CABAC формата : Да
Параметр ReFrames формата : 9 кадров
Идентификатор кодека : V_MPEG4/ISO/AVC
Продолжительность : 24 м.
Битрейт : 2596 Кбит/сек
Ширина : 1280 пикселей
Высота : 720 пикселей
Соотношение сторон : 16:9
Режим частоты кадров : Постоянный
Частота кадров : 23,976 кадра/сек
Цветовое пространство : YUV
Субдискретизация насыщенности : 4:2:0
Битовая глубина : 10 бит
Тип развёртки : Прогрессивная
Бит/(Пиксели*Кадры) : 0.117
Размер потока : 463 Мбайт (89%)
Библиотека кодирования : x264 core 132 r2309 3b1f1f7
Настройки программы : cabac=1 / ref=9 / deblock=1:-2:-2 / analyse=0x3:0x133 / me=umh / subme=9 / psy=1 / psy_rd=0.90:0.00 / mixed_ref=1 / me_range=24 / chroma_me=1 / trellis=2 / 8x8dct=1 / cqm=0 / deadzone=21,11 / fast_pskip=1 / chroma_qp_offset=-2 / threads=12 / lookahead_threads=2 / sliced_threads=0 / nr=0 / decimate=0 / interlaced=0 / bluray_compat=0 / constrained_intra=0 / bframes=8 / b_pyramid=2 / b_adapt=2 / b_bias=0 / direct=1 / weightb=1 / open_gop=0 / weightp=2 / keyint=250 / keyint_min=23 / scenecut=40 / intra_refresh=0 / rc=crf / mbtree=0 / crf=15.7 / qcomp=0.70 / qpmin=9 / qpmax=40 / qpstep=4 / ip_ratio=1.40 / pb_ratio=1.30 / aq=1:0.90
Default : Нет
Forced : Нет
Аудио
Идентификатор : 2
Формат : Vorbis
Параметр Floor формата : 1
Идентификатор кодека : A_VORBIS
Продолжительность : 24 м.
Вид битрейта : Переменный
Битрейт : 256 Кбит/сек
Каналы : 2 канала
Частота : 48,0 КГц
Метод сжатия : С потерями
Размер потока : 45,7 Мбайт (9%)
Библиотека кодирования : libVorbis (Schaufenugget) (20101101 (Schaufenugget))
Язык : Japanese
Default : Да
Forced : Нет
- -

Информация о релизе

  • Выбор видео, перевода, озвучки, а также типа сборки материала осуществляется релизером и не подлежит обсуждению. Если вы считаете, что раздаваемый материал противоречит правилам раздела "Аниме" rutracker.org, сообщите об этом одному из модераторов раздела.
  • В случае появления нового материала или же лучшего по качеству материала релизер оставляет за собой право обновить раздачу. В этом случае вам необходимо ознакомиться с изменениями (добавлениями) и перекачать торрент.
  • Данный релиз предназначен для просмотра на ПК. Воспроизведение на иных проигрывателях не гарантируется. Для просмотра рекомендуется Media Player Classic с установленным пакетом кодеков K-Lite.
  • Данный релиз содержит 10-битное видео (Hi10p). Для корректного воспроизведения обязательно используйте кодеки, поддерживающие 10-битное видео.
    Обсудить частные случаи проблем с воспроизведением и получить дополнительную информацию можно здесь.

  • Данный релиз предназначен для просмотра с внешними субтитрами и внешними звуковыми дорожками.
    • Для просмотра с внешней звуковой дорожкой нужно:
      перекинуть файлы .mka из папки "RUS Sound [<автор(ы) озвучки>]" в одну папку с видео и переключить звуковую дорожку в плеере при просмотре. Как это сделать в разных плеерах подробно описано здесь.

    • Для просмотра с субтитрами нужно:
      перекинуть файлы .ass из папки "RUS Subtitles [<автор(ы) перевода>]" в одну папку с видео - плеер подгрузит их автоматически при открытии видео.
  • Если у вас возникли проблемы с просмотром, не связанные с описанным выше, сообщите о них автору раздачи посредством сообщения в теме или ЛС Aglenn.


Показать сообщения:    

Текущее время: 16-Дек 17:01

Часовой пояс: UTC ± 0


Вы не можете начинать темы
Вы не можете отвечать на сообщения
Вы не можете редактировать свои сообщения
Вы не можете удалять свои сообщения
Вы не можете голосовать в опросах
Вы не можете прикреплять файлы к сообщениям
Вы не можете скачивать файлы

!ВНИМАНИЕ!
Сайт не предоставляет электронные версии произведений, а занимается лишь коллекционированием и каталогизацией ссылок, присылаемых и публикуемых на форуме нашими читателями. Если вы являетесь правообладателем какого-либо представленного материала и не желаете, чтобы ссылка на него находилась в нашем каталоге, свяжитесь с нами, и мы незамедлительно удалим ее. Файлы для обмена на трекере предоставлены пользователями сайта, и администрация не несет ответственности за их содержание. Просьба не заливать файлы, защищенные авторскими правами, а также файлы нелегального содержания!