Ивановский Торрент трекер
Яндекс.Погода
 

[Цитировать]
HUNTER

Несносный Деннис отправляется в круиз / Несносный Деннис против магии Вуду / Dennis the Menace in Cruise Control- Страна: США
Жанр: мультфильм, комедия, приключения, семейный
Год выпуска: 2002
Продолжительность: 01:14:10
Перевод 1: Профессиональный (полное дублирование) - KidsCo
Перевод 2: Профессиональный (многоголосый закадровый) - Екатеринбург-Арт
Русские субтитры: Нет-Режиссер: Патрик А. Вентура / Patrick A. Ventura-Роли озвучивали: Том Арнольд (Mr. George Wilson, озвучка), Пит Кронкит (Dennis Mitchell, озвучка), Джим Бёрнс (Kraigor, озвучка), Гари Чок (Hector, озвучка), Джинни Илайас (Joey, Margaret, озвучка), Морис ЛаМарш (Henry Mitchell, озвучка), Мэрлин Лайтстоун (Alice Mitchell, Martha Wilson, озвучка), Ричард Ньюман (Jinks, озвучка), Табита Сен-Жермен (Liana, озвучка), Ли Токар (Ruff, озвучка)-Описание: В поисках тишины и покоя сварливый сосед Денниса мистер Уилсон решил отправиться в морской круиз. Но все его мечты разбились о суровую реальность! Деннис и его семейка оказались на борту этого же самого круизного корабля.
А когда Деннису вздумалось протянуть руку помощи маленькой островной принцессе, которой грозят темные колдовские силы, и наказать двух мошенников, задумавших украсть ее кольцо, всем пришлось окончательно забыть об отдыхе. Потому что с Деннисом и его командой, когда они приступают к делу, не сравнится даже тропический ураган...-Рейтинг:
-Мировая премьера: 27 октября 2002-Доп. информация Перевод "Екатеринбург-Арт" найден вконтакте, за перевод "KidsCo" спасибо afedrenkv.-Релиз: -Качество: DVDRip
Формат: AVI
Видео: 640x480 (1.33:1), 23.976 fps, XviD build 65 ~2195 kbps avg, 0.30 bit/pixel
Аудио: 48 kHz, AC3 Dolby Digital, 2/0 (L,R) ch, ~192 kbps - дублированный [KidsCo]
Аудио 2: 48 kHz, AC3 Dolby Digital, 2/0 (L,R) ch, ~192 kbps - многоголосый закадровый [Екатеринбург-Арт]
Аудио 3: 48 kHz, AC3 Dolby Digital, 2/0 (L,R) ch, ~224 kbps - Eng
Субтитры: Отсутствуют
-MI
Format : AVIFormat/Info : Audio Video InterleaveFile size : 1.46 GiBDuration : 1h 14mnOverall bit rate : 2 824 KbpsWriting application : VirtualDubMod 1.5.10.3 | www.virtualdub-fr.org || (build 2550/release)Writing library : VirtualDubMod build 2550/release
VideoID : 0Format : MPEG-4 VisualFormat profile : Advanced Simple@L5Format settings, BVOP : 2Format settings, QPel : NoFormat settings, GMC : No warppointsFormat settings, Matrix : CustomCodec ID : XVIDCodec ID/Hint : XviDDuration : 1h 14mnBit rate : 2 197 KbpsWidth : 640 pixelsHeight : 480 pixelsDisplay aspect ratio : 4:3Frame rate : 23.976 fpsColor space : YUVChroma subsampling : 4:2:0Bit depth : 8 bitsScan type : ProgressiveCompression mode : LossyBits/(Pixel*Frame) : 0.298Stream size : 1.14 GiB (78%)Writing library : XviD 65
Audio #1ID : 1Format : AC-3Format/Info : Audio Coding 3Mode extension : CM (complete main)Format settings, Endianness : BigCodec ID : 2000Duration : 1h 14mnBit rate mode : ConstantBit rate : 192 KbpsChannel(s) : 2 channelsChannel positions : Front: L RSampling rate : 48.0 KHzBit depth : 16 bitsCompression mode : LossyStream size : 102 MiB (7%)Alignment : Split accross interleavesInterleave, duration : 42 ms (1.00 video frame)Interleave, preload duration : 500 ms
Audio #2ID : 2Format : AC-3Format/Info : Audio Coding 3Mode extension : CM (complete main)Format settings, Endianness : BigCodec ID : 2000Duration : 1h 14mnBit rate mode : ConstantBit rate : 192 KbpsChannel(s) : 2 channelsChannel positions : Front: L RSampling rate : 48.0 KHzBit depth : 16 bitsCompression mode : LossyStream size : 102 MiB (7%)Alignment : Split accross interleavesInterleave, duration : 42 ms (1.00 video frame)Interleave, preload duration : 500 ms
Audio #3ID : 3Format : AC-3Format/Info : Audio Coding 3Mode extension : CM (complete main)Format settings, Endianness : BigCodec ID : 2000Duration : 1h 14mnBit rate mode : ConstantBit rate : 224 KbpsChannel(s) : 2 channelsChannel positions : Front: L RSampling rate : 48.0 KHzBit depth : 16 bitsCompression mode : LossyStream size : 119 MiB (8%)Alignment : Split accross interleavesInterleave, duration : 42 ms (1.00 video frame)Interleave, preload duration : 500 ms
Все раздачи мультфильма!
Показать сообщения:    

Текущее время: 17-Окт 21:31

Часовой пояс: UTC - 1


Вы не можете начинать темы
Вы не можете отвечать на сообщения
Вы не можете редактировать свои сообщения
Вы не можете удалять свои сообщения
Вы не можете голосовать в опросах
Вы не можете прикреплять файлы к сообщениям
Вы не можете скачивать файлы

!ВНИМАНИЕ!
Сайт не предоставляет электронные версии произведений, а занимается лишь коллекционированием и каталогизацией ссылок, присылаемых и публикуемых на форуме нашими читателями. Если вы являетесь правообладателем какого-либо представленного материала и не желаете, чтобы ссылка на него находилась в нашем каталоге, свяжитесь с нами, и мы незамедлительно удалим ее. Файлы для обмена на трекере предоставлены пользователями сайта, и администрация не несет ответственности за их содержание. Просьба не заливать файлы, защищенные авторскими правами, а также файлы нелегального содержания!