Важное объявление!
У Нас Все раздачи мультитрекерные, при нуле пиров в релизах, можете смело вставать на закачку!
 
Автор Сообщение

HUNTER

Стаж:
4 года 9 месяцев
Сообщений:
65021

Репутация: 101

[+] [-]
Вне форума [Профиль] [ЛС]

Несносные леди / Mother's Day
-Год выпуска: 2016
Страна: США
Студия: Diamond Pictures, Capacity Pictures, Gulfstream Pictures, Open Road Films
Жанр: драма, комедия
Продолжительность: 01:53:01
Перевод: Профессиональный (дублированный) iTunes Russia / Парадиз Медиа
Cубтитры: нет
Оригинальная аудиодорожка: нет
-Режиссер: Гэрри Маршалл / Garry Marshall-В ролях: Дженнифер Энистон, Джулия Робертс, Кейт Хадсон, Джейсон Судейкис, Тимоти Олифант, Шэй Митчелл, Калеб Браун, Брэндон Спинк, Сэм Маршалл, Сиена ЛаГамбина и другие.-Роли дублировали: Людмила Шувалова, Елена Шульман, Марианна Шульц, Денис Беспалый, Александр Коврижных, Варвара Чабан, Антон Эльдаров, Олег Форостенко, Надежда Подъяпольская, Рудольф Панков, Наталья Грачёва, Галина Исхакова, Василиса Эльдарова, Мария Иващенко, Станислав Тикунов, Артём Маликов, Максим Чихачёв, Сергей Чихачёв, Алёна Фалалеева, Анастасия Лапина, Дарья Фролова, Екатерина Африкантова, Екатерина Семёнова, Всеволод Кузнецов.-Описание: Фитнес и шопинг, капризные предки и непослушные дети, завистливые подружки и надоевшие бывшие — милые составляющие настоящего женского счастья. А также мужского, если ты — отец-одиночка. И неважно, где и как сведет вас жизнь, если ты встретишь настоящую любовь. Главное — не сдаваться! Ведь судьба — это большой супермаркет, а не магазин на диване.-РЕЛИЗ ОТ: V.SERIJ2013-Качество: WEB-DL 1080p |HDClub|
Формат: MKV
Видео кодек: H.264
Аудио кодек: AC3
Видео: H.264, 1920x1038 (1.85:1), 25.000 fps, ~4914 kbps, 0.099 bit/pixel
Аудио: AC3, 48 kHz, 6 ch, 384 kbps
-Сэмпл \ Кинопоиск-

Скриншоты

Media Info

Код:
General
Unique ID                      : 214048103489110767374845024431956964644 (0xA1082A4ADE40813F8FE9747D08CA3524)
Complete name                  : E:\Video\HD\Movies (HD)\Mother's Day (2016) (WEB-DL 1080p).mkv
Format                         : Matroska
Format version                 : Version 4 / Version 2
File size                      : 4.27 GiB
Duration                       : 1h 53mn
Overall bit rate               : 5 405 Kbps
Encoded date                   : UTC 2016-07-28 08:06:37
Writing application            : mkvmerge v8.8.0 ('Wind at my back') 32bit
Writing library                : libebml v1.3.3 + libmatroska v1.4.4
DURATION                       : 01:53:01.056000000
NUMBER_OF_FRAMES               : 211908
NUMBER_OF_BYTES                : 325490688
_STATISTICS_WRITING_APP        : mkvmerge v8.8.0 ('Wind at my back') 32bit
_STATISTICS_WRITING_DATE_UTC   : 2016-07-28 08:06:37
_STATISTICS_TAGS               : BPS DURATION NUMBER_OF_FRAMES NUMBER_OF_BYTES
Video
ID                             : 1
Format                         : AVC
Format/Info                    : Advanced Video Codec
Format profile                 : High@L4.0
Format settings, CABAC         : Yes
Format settings, ReFrames      : 4 frames
Codec ID                       : V_MPEG4/ISO/AVC
Duration                       : 1h 53mn
Bit rate                       : 4 914 Kbps
Width                          : 1 920 pixels
Height                         : 1 038 pixels
Display aspect ratio           : 1.85:1
Frame rate mode                : Constant
Frame rate                     : 25.000 fps
Color space                    : YUV
Chroma subsampling             : 4:2:0
Bit depth                      : 8 bits
Scan type                      : Progressive
Bits/(Pixel*Frame)             : 0.099
Stream size                    : 3.88 GiB (91%)
Language                       : English
Default                        : Yes
Forced                         : No
Color primaries                : BT.709
Transfer characteristics       : BT.709
Matrix coefficients            : BT.709
Color range                    : Limited
Audio
ID                             : 2
Format                         : AC-3
Format/Info                    : Audio Coding 3
Mode extension                 : CM (complete main)
Format settings, Endianness    : Big
Codec ID                       : A_AC3
Duration                       : 1h 53mn
Bit rate mode                  : Constant
Bit rate                       : 384 Kbps
Channel(s)                     : 6 channels
Channel positions              : Front: L C R, Side: L R, LFE
Sampling rate                  : 48.0 KHz
Bit depth                      : 16 bits
Compression mode               : Lossy
Stream size                    : 310 MiB (7%)
Title                          : DUB (iTunes / Парадиз Медиа)
Language                       : Russian
Default                        : Yes
Forced                         : No
Menu
00:00:00.000                   : en:1
00:05:12.680                   : en:2
00:12:51.800                   : en:3
00:18:26.960                   : en:4
00:24:00.320                   : en:5
00:31:21.160                   : en:6
00:36:59.680                   : en:7
00:43:05.760                   : en:8
00:49:36.800                   : en:9
00:56:20.320                   : en:10
01:02:03.720                   : en:11
01:09:50.080                   : en:12
01:15:59.440                   : en:13
01:22:03.040                   : en:14
01:28:28.640                   : en:15
01:35:37.680                   : en:16
01:42:43.320                   : en:17
-

_________________
Показать сообщения:    

Текущее время: Сегодня 15:19

Часовой пояс: GMT



Вы не можете начинать темы
Вы не можете отвечать на сообщения
Вы не можете редактировать свои сообщения
Вы не можете удалять свои сообщения
Вы не можете голосовать в опросах
Вы не можете прикреплять файлы к сообщениям
Вы не можете скачивать файлы