Важное объявление!
У Нас Все раздачи мультитрекерные, при нуле пиров в релизах, можете смело вставать на закачку!
 
Автор Сообщение

HUNTER

Стаж:
4 года 9 месяцев
Сообщений:
65004

Репутация: 101

[+] [-]
Вне форума [Профиль] [ЛС]

Непутевый ученик в школе магии / Mahouka Koukou no Rettousei-
Страна: Япония
Год выпуска: 2014 г.
Жанр: фантастика, приключения, школа
Тип: TV
Продолжительность: 24 эп., ~25 мин. серия
Режиссер: Оно Манабу
Студия: -Описание: Магия... Теперь это реальная технология, открытая учеными. Для обучения будущих Волшебников (Специалистов Магии) государства открыло несколько школ и университет.
Непутёвый старший брат Тацуя и его безупречная младшая сестрёнка Миюки поступили в одну из Старших Школ Магии. С этого момента у них начинается новая удивительная жизнь - новые друзья и враги, работа в школьном совете и др.-Перевод: Nika_Elrik, SapogaN, Keeper Rus - [YakuSub Studio]
Озвучивание: Dark_Demon & Miori
Тайминг: Dark_Demon
Работа со звуком: Dark_Demon & Miori
Релиз от: -Качество: HDTVRip [Leopard-Raws]
Тип релиза: Без хардсаба
Формат видео: MP4
Наличие линковки: Нет
Видео: x264 (8 bit), 1280x720, 1 878 Kbps, 23.976 fps
Аудио: [int] AAC, 192 kbps, 44,1 Hz, 2 ch-

Подробные тех. данные

GeneralComplete name : D:\Для озвучки\Мои Озвучки\[Dark_Demon & Miori]_Mahouka Koukou no Rettousei\[Leopard-Raws] Mahouka Koukou no Rettousei - 01 (MX 1280x720 x264 AAC)_[Dark_Demon & Miori].mp4Format : MPEG-4Format profile : Base MediaCodec ID : isomFile size : 356 MiBDuration : 23mn 59sOverall bit rate mode : VariableOverall bit rate : 2 074 KbpsEncoded date : UTC 2014-04-06 15:11:44Tagged date : UTC 2014-04-06 15:11:44
VideoID : 1Format : AVCFormat/Info : Advanced Video CodecFormat profile : High@L4.1Format settings, CABAC : YesFormat settings, ReFrames : 4 framesCodec ID : avc1Codec ID/Info : Advanced Video CodingDuration : 23mn 59sBit rate : 1 878 KbpsMaximum bit rate : 14.0 MbpsWidth : 1 280 pixelsHeight : 720 pixelsDisplay aspect ratio : 16:9Frame rate mode : ConstantFrame rate : 23.976 fpsColor space : YUVChroma subsampling : 4:2:0Bit depth : 8 bitsScan type : ProgressiveBits/(Pixel*Frame) : 0.085Stream size : 322 MiB (91%)Title : 264Writing library : x264 core 129 r2245+729M 1a52e03Encoding settings : cabac=1 / ref=4 / deblock=1:1:-1 / analyse=0x3:0x113 / me=umh / subme=9 / psy=1 / fade_compensate=0.00 / psy_rd=1.00:0.00 / mixed_ref=1 / me_range=24 / chroma_me=1 / trellis=2 / 8x8dct=1 / cqm=0 / deadzone=21,11 / fast_pskip=1 / chroma_qp_offset=-2 / threads=8 / lookahead_threads=1 / sliced_threads=0 / nr=0 / decimate=1 / interlaced=0 / bluray_compat=0 / constrained_intra=0 / fgo=0 / bframes=9 / b_pyramid=2 / b_adapt=2 / b_bias=0 / direct=1 / weightb=1 / open_gop=0 / weightp=2 / keyint=240 / keyint_min=24 / scenecut=40 / intra_refresh=0 / rc=crf / mbtree=0 / crf=19.0 / qcomp=0.72 / qpmin=0 / qpmax=69 / qpstep=4 / ip_ratio=1.40 / pb_ratio=1.30 / aq=1:0.85Encoded date : UTC 2014-04-06 07:12:21Tagged date : UTC 2014-04-06 15:11:46Color primaries : BT.709Transfer characteristics : BT.709Matrix coefficients : BT.709
AudioID : 2Format : AACFormat/Info : Advanced Audio CodecFormat profile : LCCodec ID : 40Duration : 23mn 59sBit rate mode : VariableBit rate : 192 KbpsMaximum bit rate : 196 KbpsChannel(s) : 2 channelsChannel positions : Front: L RSampling rate : 48.0 KHzCompression mode : LossyStream size : 33.0 MiB (9%)Language : EnglishEncoded date : UTC 2014-04-06 15:11:45Tagged date : UTC 2014-04-06 15:11:46

Список эпизодов

01. Поступление. Часть I

Скриншоты


_________________
Показать сообщения:    

Текущее время: Сегодня 07:53

Часовой пояс: GMT



Вы не можете начинать темы
Вы не можете отвечать на сообщения
Вы не можете редактировать свои сообщения
Вы не можете удалять свои сообщения
Вы не можете голосовать в опросах
Вы не можете прикреплять файлы к сообщениям
Вы не можете скачивать файлы