Непристойное поведение / Disturbing Behavior (Дэвид Наттер / David Nutter) [1998, Австралия, США, Канада, триллер, детектив, фантастика, BDRemux 1080p] DVO (НТВ+) + MVO (РТР) + 2x AVO (Сербин, Дольский) + Sub Eng + Original Eng + Commentary :: Ивановский Торрент трекер
Важное объявление!
У Нас Все раздачи мультитрекерные, при нуле пиров в релизах, можете смело вставать на закачку!
Статистика раздачи
Размер:     |    Зарегистрирован:     |    Скачан:     |   
Нет
 
     
 
 
Автор Сообщение

HUNTER

Стаж:
4 года 11 месяцев
Сообщений:
66066

Репутация: 101

[+] [-]
Вне форума [Профиль] [ЛС]

Непристойное поведение / Disturbing Behavior«Perfection is every teenage student's co-pilot»
Страна: Австралия, США, Канада
Жанр: триллер, детектив, фантастика
Год выпуска: 1998
Продолжительность: 01:23:44
-
Перевод 1: Профессиональный (двухголосый закадровый) НТВ+
Перевод 2: Профессиональный (многоголосый закадровый) РТР
Перевод 3: Авторский (одноголосый закадровый) Юрий Сербин
Перевод 4: Авторский (одноголосый закадровый) Андрей Дольский
Cубтитры: английские [SDH]
Оригинальная аудиодорожка: английский
-
Режиссер: Дэвид Наттер / David Nutter
В ролях: Джеймс Марсден, Кэти Холмс, Тобиас Мелер, Ник Стал, Стив Рейлсбэк, Брюс Гринвуд, Кэтрин Изабель, Уильям Сэдлер, Итэн Эмбри, Терри Дэвид Маллиган
-
Описание: После самоубийства старшего брата родители отправляют трудного подростка Стива Кларка в милый солнечный городок Крэдл-Бэй на перевоспитание. Никаких аварий, передозировок наркотиков, никаких самоубийств.
В Крэдл-Бэй тинейджеры занимаются общественно-полезными делами, с юных лет предавая друг друга, зарабатывая тем самым степени отличия и награды. Но кто стоит за идеальной, параноидальной дисциплиной, очень напоминающей режим концлагеря?
Объединившись с собратьями по несчастью, юными изгоями Гэвином и Рейчел, одиноко противостоящими навязываемому общественному порядку, Стив бросается в нелегкую борьбу, цена которой - выжить, сохранив свою индивидуальность.
[img]https://rating.kinopoisk.ru/3564.gif[/img]
Тип релиза: BDRemux 1080p
Контейнер: MKV
Видео: MPEG-4 AVC / NTSC 16:9 / 1920x1080 (1,85:1) / 29357 kbps / 23,976 fps / 0.603 bit/pixel / High@L4.1
Аудио 1: Russian / Dolby Digital Audio / 2.0 Ch / 48 kHz / 192 kbps / 16 bit / DVO / НТВ+
Аудио 2: Russian / Dolby Digital Audio / 2.0 Ch / 48 kHz / 192 kbps / 16 bit / MVO / РТР
Аудио 3: Russian / Dolby Digital Audio / 2.0 Ch / 48 kHz / 192 kbps / 16 bit / AVO / Юрий Сербин
Аудио 4: Russian / Dolby Digital Audio / 2.0 Ch / 48 kHz / 192 kbps / 16 bit / AVO / Андрей Дольский
Аудио 5: English / DTS-HD Master Audio / 5.1 Ch / 48 kHz / 2517 kbps / 24-bit (DTS Core: 5.1 Ch / 48 kHz / 1509 kbps / 24-bit) / Original
Аудио 6: English / DTS-HD Master Audio / 2.0 Ch / 48 kHz / 1573 kbps / 24-bit (DTS Core: 2.0 Ch / 48 kHz / 1509 kbps / 24-bit) / Audio commentary by director David Nutter
Формат субтитров: softsub (SRT)
Навигация по главам: есть

MediaInfo

Код:
Общее
Уникальный идентификатор                 : 174319671982978154163190210786189528840 (0x8324BF63D02AB9DCBCB395E60A324F08)
Полное имя                               : N:\BDRemux 1080p\Disturbing Behavior.1998.BDRemux.1080p.mkv
Формат                                   : Matroska
Версия формата                           : Version 4 / Version 2
Размер файла                             : 20,0 Гбайт
Продолжительность                        : 1 ч. 23 м.
Общий поток                              : 34,2 Мбит/сек
Название фильма                          : Release for RuTracker © flaSI-I
Дата кодирования                         : UTC 2016-08-27 05:53:39
Программа кодирования                    : mkvmerge v9.4.0 ('Knurl') 64bit
Библиотека кодирования                   : libebml v1.3.4 + libmatroska v1.4.5
Видео
Идентификатор                            : 1
Формат                                   : AVC
Формат/Информация                        : Advanced Video Codec
Профиль формата                          : High@L4.1
Параметр CABAC формата                   : Да
Параметр ReFrames формата                : 4 кадра
Идентификатор кодека                     : V_MPEG4/ISO/AVC
Продолжительность                        : 1 ч. 23 м.
Вид битрейта                             : Постоянный
Битрейт                                  : 30,0 Мбит/сек
Ширина                                   : 1920 пикселей
Высота                                   : 1080 пикселей
Соотношение сторон                       : 16:9
Режим частоты кадров                     : Постоянный
Частота кадров                           : 23,976 (24000/1001) кадра/сек
Цветовое пространство                    : YUV
Субдискретизация насыщенности            : 4:2:0
Битовая глубина                          : 8 бит
Тип развёртки                            : Прогрессивная
Бит/(Пиксели*Кадры)                      : 0.603
Размер потока                            : 17,2 Гбайт (86%)
Язык                                     : English
Default                                  : Да
Forced                                   : Нет
Аудио #1
Идентификатор                            : 2
Формат                                   : AC-3
Формат/Информация                        : Audio Coding 3
Расширение режима                        : CM (complete main)
Параметр Endianness формата              : Big
Идентификатор кодека                     : A_AC3
Продолжительность                        : 1 ч. 23 м.
Вид битрейта                             : Постоянный
Битрейт                                  : 192 Кбит/сек
Каналы                                   : 2 канала
Расположение каналов                     : Front: L R
Частота                                  : 48,0 КГц
Частота кадров                           : 31,250 кадров/сек (1536 spf)
Метод сжатия                             : С потерями
Размер потока                            : 115 Мбайт (1%)
Заголовок                                : DVO / НТВ+
Язык                                     : Russian
Default                                  : Да
Forced                                   : Нет
Аудио #2
Идентификатор                            : 3
Формат                                   : AC-3
Формат/Информация                        : Audio Coding 3
Расширение режима                        : CM (complete main)
Параметр Endianness формата              : Big
Идентификатор кодека                     : A_AC3
Продолжительность                        : 1 ч. 23 м.
Вид битрейта                             : Постоянный
Битрейт                                  : 192 Кбит/сек
Каналы                                   : 2 канала
Расположение каналов                     : Front: L R
Частота                                  : 48,0 КГц
Частота кадров                           : 31,250 кадров/сек (1536 spf)
Метод сжатия                             : С потерями
Размер потока                            : 115 Мбайт (1%)
Заголовок                                : MVO / РТР
Язык                                     : Russian
Default                                  : Нет
Forced                                   : Нет
Аудио #3
Идентификатор                            : 4
Формат                                   : AC-3
Формат/Информация                        : Audio Coding 3
Расширение режима                        : CM (complete main)
Параметр Endianness формата              : Big
Идентификатор кодека                     : A_AC3
Продолжительность                        : 1 ч. 23 м.
Вид битрейта                             : Постоянный
Битрейт                                  : 192 Кбит/сек
Каналы                                   : 2 канала
Расположение каналов                     : Front: L R
Частота                                  : 48,0 КГц
Частота кадров                           : 31,250 кадров/сек (1536 spf)
Метод сжатия                             : С потерями
Размер потока                            : 115 Мбайт (1%)
Заголовок                                : AVO / Юрий Сербин
Язык                                     : Russian
Default                                  : Нет
Forced                                   : Нет
Аудио #4
Идентификатор                            : 5
Формат                                   : AC-3
Формат/Информация                        : Audio Coding 3
Расширение режима                        : CM (complete main)
Параметр Endianness формата              : Big
Идентификатор кодека                     : A_AC3
Продолжительность                        : 1 ч. 23 м.
Вид битрейта                             : Постоянный
Битрейт                                  : 192 Кбит/сек
Каналы                                   : 2 канала
Расположение каналов                     : Front: L R
Частота                                  : 48,0 КГц
Частота кадров                           : 31,250 кадров/сек (1536 spf)
Метод сжатия                             : С потерями
Размер потока                            : 115 Мбайт (1%)
Заголовок                                : AVO / Андрей Дольский
Язык                                     : Russian
Default                                  : Нет
Forced                                   : Нет
Аудио #5
Идентификатор                            : 6
Формат                                   : DTS
Формат/Информация                        : Digital Theater Systems
Профиль формата                          : MA / Core
Режим                                    : 16
Параметр Endianness формата              : Big
Идентификатор кодека                     : A_DTS
Продолжительность                        : 1 ч. 23 м.
Вид битрейта                             : Переменный / Постоянный
Битрейт                                  : 2517 Кбит/сек / 1509 Кбит/сек
Каналы                                   : 6 каналов
Расположение каналов                     : Front: L C R, Side: L R, LFE
Частота                                  : 48,0 КГц
Частота кадров                           : 93,750 кадра/сек (512 spf)
Битовая глубина                          : 24 бит
Метод сжатия                             : Без потерь / Lossy
Размер потока                            : 1,47 Гбайт (7%)
Заголовок                                : Original
Язык                                     : English
Default                                  : Нет
Forced                                   : Нет
Аудио #6
Идентификатор                            : 7
Формат                                   : DTS
Формат/Информация                        : Digital Theater Systems
Профиль формата                          : MA / Core
Режим                                    : 16
Параметр Endianness формата              : Big
Идентификатор кодека                     : A_DTS
Продолжительность                        : 1 ч. 23 м.
Вид битрейта                             : Переменный / Постоянный
Битрейт                                  : 1573 Кбит/сек / 1509 Кбит/сек
Каналы                                   : 2 канала
Расположение каналов                     : Front: L R
Частота                                  : 48,0 КГц
Частота кадров                           : 93,750 кадра/сек (512 spf)
Битовая глубина                          : 24 бит
Метод сжатия                             : Без потерь / Lossy
Размер потока                            : 942 Мбайт (5%)
Заголовок                                : Audio commentary by director David Nutter
Язык                                     : English
Default                                  : Нет
Forced                                   : Нет
Текст
Идентификатор                            : 8
Формат                                   : UTF-8
Идентификатор кодека                     : S_TEXT/UTF8
Идентификатор кодека/Информация          : UTF-8 Plain Text
Продолжительность                        : 1 ч. 23 м.
Битрейт                                  : 51 бит/сек
Count of elements                        : 1218
Размер потока                            : 31,6 Кбайт (0%)
Заголовок                                : Original / SDH
Язык                                     : English
Default                                  : Нет
Forced                                   : Нет
Меню
00:00:00.000                             : en:Logo/Main Title
00:03:06.601                             : en:Kiss Before Dying
00:07:11.469                             : en:New Kid In Town
00:10:07.602                             : en:Dickie & Peckerhead
00:12:02.869                             : en:Gavin's Freak, Role Call
00:16:50.103                             : en:Mentioning Allen
00:17:45.870                             : en:Dickie Gets Initiated
00:18:57.370                             : en:Meeting Caldicott
00:20:26.071                             : en:Rachel
00:22:52.438                             : en:Clean-Up On Aisle 1
00:25:28.438                             : en:"A Sinister Force"
00:26:35.438                             : en:The Rat Man
00:28:56.705                             : en:Dickie Changes Gears
00:30:16.072                             : en:Bonding At The SHoppe
00:32:34.306                             : en:And The Next One Is...
00:35:33.573                             : en:"... A Dead Man"
00:37:38.706                             : en:The New Gavin
00:38:48.940                             : en:Blue Ribbon Brawl
00:41:05.440                             : en:Outside Looking In
00:41:43.440                             : en:"It's All An Act"
00:43:45.074                             : en:Coming After Steve
00:44:37.441                             : en:"Bad Wrong Wrong Bad"
00:48:01.441                             : en:Fixing Lorna
00:49:20.941                             : en:"Why Not?!!!"
00:52:08.708                             : en:Brotherly Concern
00:52:49.576                             : en:Gavin's Goodbye
00:55:40.909                             : en:"I Had A Brother"
00:56:51.042                             : en:At Belknap/Mad Dash
01:00:35.042                             : en:"A Big Rat"
01:03:27.409                             : en:The Ambush
01:05:44.110                             : en:Right In The Eyes
01:08:49.477                             : en:Escape/Chug The Lug
01:11:18.544                             : en:Roadblock
01:13:04.412                             : en:The Final Plunge
01:16:38.812                             : en:A New Teach
01:17:44.312                             : en:End Credits
01:23:35.579                             : en:Chapter 37

Скриншоты


_________________
Показать сообщения:    

Текущее время: Сегодня 15:44

Часовой пояс: GMT



Вы не можете начинать темы
Вы не можете отвечать на сообщения
Вы не можете редактировать свои сообщения
Вы не можете удалять свои сообщения
Вы не можете голосовать в опросах
Вы не можете прикреплять файлы к сообщениям
Вы не можете скачивать файлы