Ивановский Торрент трекер
Яндекс.Погода
 

[Цитировать]
HUNTER

Некий научный Рейлган / Toaru Kagaku no Railgun S
Страна: Япония
Год выпуска: 2014 г.
Жанр: приключения, фантастика
Тип: OVA
Продолжительность: 6 мин.
Режиссер: Нагай Тацуюки
Студия: J.C.Staff
Описание: Академия, город света и разума, средоточие надежд человечества, что лежит где-то в Южной Японии, пока не ведает о грядущих катаклизмах. Впрочем, как знать – ученые, стоящие у власти и не отягощенные моралью, понимают, что только сила их воспитанников поможет отбиться от врагов и двинуться дальше – в области, для людей издавна запретные. Сила обретается в бою, и если в противостоянии с магией придется лить кровь – что ж, наука требует жертв. И ничего страшного, если в процессе боевых тренировок сильнейшие эсперы не только покрошат расходный материал, но и слегка разберутся между собой…
Доп. информация: ОВА поставляется в комплекте с официальным visual book
Качество: BDRip
Тип релиза: Без хардсаба
Формат видео: MP4
Наличие линковки: Нет
Видео: H264, 1280x720, 8 bits, 796 kbps, 23.976 fps
Аудио: AAC, 2ch, 124 kbps, 48kHz Язык Японский
Субтитры: ass, отдельным файлом Язык субтитров русский ; Перевод: Iseksee

Подробные тех. данные

Format : MPEG-4Format profile : Base MediaCodec ID : isomFile size : 39.6 MiBDuration : 5mn 59sOverall bit rate mode : VariableOverall bit rate : 924 Kbps
VideoID : 1Format : AVCFormat/Info : Advanced Video CodecFormat profile : High@L4.0Format settings, CABAC : YesFormat settings, ReFrames : 9 framesCodec ID : avc1Codec ID/Info : Advanced Video CodingDuration : 5mn 59sBit rate : 792 KbpsMaximum bit rate : 3 434 KbpsWidth : 1 280 pixelsHeight : 720 pixelsDisplay aspect ratio : 16:9Frame rate mode : ConstantFrame rate : 23.976 fpsColor space : YUVChroma subsampling : 4:2:0Bit depth : 8 bitsScan type : ProgressiveBits/(Pixel*Frame) : 0.036Stream size : 34.1 MiB (86%)Writing library : x264 core 133 r2334 a3ac64bEncoding settings : cabac=1 / ref=9 / deblock=1:-1:-1 / analyse=0x3:0x133 / me=umh / subme=9 / psy=1 / psy_rd=0.80:0.00 / mixed_ref=1 / me_range=48 / chroma_me=1 / trellis=2 / 8x8dct=1 / cqm=2 / deadzone=21,11 / fast_pskip=1 / chroma_qp_offset=-2 / threads=18 / lookahead_threads=2 / sliced_threads=0 / nr=0 / decimate=1 / interlaced=0 / bluray_compat=0 / constrained_intra=0 / bframes=6 / b_pyramid=2 / b_adapt=2 / b_bias=0 / direct=3 / weightb=1 / open_gop=0 / weightp=2 / keyint=480 / keyint_min=24 / scenecut=60 / intra_refresh=0 / rc_lookahead=60 / rc=2pass / mbtree=1 / bitrate=792 / ratetol=1.0 / qcomp=0.80 / qpmin=5 / qpmax=48 / qpstep=18 / cplxblur=20.0 / qblur=0.5 / ip_ratio=1.40 / aq=2:1.00
AudioID : 2Format : AACFormat/Info : Advanced Audio CodecFormat profile : LCCodec ID : 40Duration : 5mn 59sBit rate mode : VariableBit rate : 124 KbpsMaximum bit rate : 140 KbpsChannel count : 2 channelsChannel positions : Front: L RSampling rate : 48.0 KHzCompression mode : LossyDelay relative to video : 83msStream size : 5.31 MiB (13%)

Список эпизодов

1. Daiji na Koto wa Zenbu Sentou ni Osowatta

Скриншоты

0 человек читают эту тему: 0 пользователей, 0 скрытых пользователей, 0 гостей

Показать сообщения:    

Текущее время: 22-Авг 23:22

Часовой пояс: UTC - 1


Вы не можете начинать темы
Вы не можете отвечать на сообщения
Вы не можете редактировать свои сообщения
Вы не можете удалять свои сообщения
Вы не можете голосовать в опросах
Вы не можете прикреплять файлы к сообщениям
Вы не можете скачивать файлы

!ВНИМАНИЕ!
Сайт не предоставляет электронные версии произведений, а занимается лишь коллекционированием и каталогизацией ссылок, присылаемых и публикуемых на форуме нашими читателями. Если вы являетесь правообладателем какого-либо представленного материала и не желаете, чтобы ссылка на него находилась в нашем каталоге, свяжитесь с нами, и мы незамедлительно удалим ее. Файлы для обмена на трекере предоставлены пользователями сайта, и администрация не несет ответственности за их содержание. Просьба не заливать файлы, защищенные авторскими правами, а также файлы нелегального содержания!