Важное объявление!
У Нас Все раздачи мультитрекерные, при нуле пиров в релизах, можете смело вставать на закачку!
 
Автор Сообщение

HUNTER

Стаж:
4 года 10 месяцев
Сообщений:
65576

Репутация: 101

[+] [-]
Вне форума [Профиль] [ЛС]

Неисправимый / Incorrigible / L'incorrigible
Страна: Франция
Жанр: комедия
Год выпуска: 1975
Продолжительность: 01:39:18
Перевод 1: Профессиональный (многоголосый закадровый) ОРТ
Перевод 2: Профессиональный (многоголосый закадровый) Твистер
Cубтитры: русские
Оригинальная аудиодорожка: французский--Режиссер: Филипп де Брока / Philippe de Broca--В ролях: Жан-Поль Бельмондо, Женевьев Бюжо, Жюльен Гиомар, Шарль Жерар, Даниэль Секкальди, Капюсин, Андреа Ферреоль, Мишель Бон, Альбер Симоно, Паскаль Робер, Мария Мерико, Дора Долл, Марк Дюдикур, Роже Риффар, Морис Травай, Катрин Альрик, Морис Озель, Мадлен Барбюле, Филипп Бризар, Робер Дальбан, Жерар Дурнель, Анна Гейлор, Катрин Лашанс, Лор Мутуссами, Жан-Пьер Рамбаль, Бернадетт Роберт...--Описание: Мошенник высшего разряда, выйдя из тюрьмы, с повышенным энтузиазмом принимается за своё прежнее ремесло. Он продаёт чужие квартиры, яхты и даже истребители "Мираж" африканским странам. Обаятельнейшего пройдоху знает весь Париж, все женщины вешаются ему на шею. Но вот к нему приходит очаровательная женщина, психолог из полиции, которой поручено наблюдать за ним и помочь его адаптации к честной жизни...--Доп. информация: Kinopoisk | IMDB | Sample--Тип релиза: WEB-DL 720p
Контейнер: MKV
Видео: MPEG4/ISO/AVC, 1208x720, 24.000 fps, 4000 Kbps.
Аудио 1: AC3, 48 kHz, 192 kbps, 2 channels
Аудио 2: AC3, 48 kHz, 192 kbps, 2 channels
Аудио 3: AАС-LC, 48.0 KHz, 160 Kbps, 2 channels
Формат субтитров: softsub (SRT)

MediaInfo

General
Unique ID : 199011658506095068723508520587035349938 (0x95B840514229ADF09EC35E40482313B2)
Complete name : Неисправимый (1975).mkv
Format : Matroska
Format version : Version 4 / Version 2
File size : 3.33 GiB
Duration : 1h 39mn
Overall bit rate : 4 797 Kbps
Encoded date : UTC 2015-03-08 21:46:03
Writing application : mkvmerge v7.7.0 ('Six Voices') 64bit built on Feb 28 2015 23:39:33
Writing library : libebml v1.3.1 + libmatroska v1.4.2
Attachements : cover.jpg
DURATION : 01:37:19.983000000
NUMBER_OF_FRAMES : 1059
NUMBER_OF_BYTES : 81146
_STATISTICS_WRITING_APP : mkvmerge v7.7.0 ('Six Voices') 64bit built on Feb 28 2015 23:39:33
_STATISTICS_WRITING_DATE_UT : 2015-03-08 21:46:03
_STATISTICS_TAGS : BPS DURATION NUMBER_OF_FRAMES NUMBER_OF_BYTES
Video
ID : 1
Format : AVC
Format/Info : Advanced Video Codec
Format profile : High@L3.1
Format settings, CABAC : No
Format settings, ReFrames : 2 frames
Codec ID : V_MPEG4/ISO/AVC
Duration : 1h 39mn
Width : 1 208 pixels
Height : 720 pixels
Display aspect ratio : 1.678
Frame rate mode : Constant
Frame rate : 24.000 fps
Color space : YUV
Chroma subsampling : 4:2:0
Bit depth : 8 bits
Scan type : Progressive
Language : French
Default : Yes
Forced : No
Color primaries : BT.709
Transfer characteristics : BT.709
Matrix coefficients : BT.709
Color range : Limited
Audio #1
ID : 2
Format : AC-3
Format/Info : Audio Coding 3
Format profile : Dolby Digital
Mode extension : CM (complete main)
Format settings, Endianness : Big
Codec ID : A_AC3
Duration : 1h 39mn
Bit rate mode : Constant
Bit rate : 192 Kbps
Channel(s) : 2 channels
Channel positions : Front: L R
Sampling rate : 48.0 KHz
Bit depth : 16 bits
Compression mode : Lossy
Stream size : 136 MiB (4%)
Title : AC3 48 kHz 2.0 192 kbps MVO ORT
Language : Russian
Default : Yes
Forced : No
Audio #2
ID : 3
Format : AC-3
Format/Info : Audio Coding 3
Format profile : Dolby Digital
Mode extension : CM (complete main)
Format settings, Endianness : Big
Codec ID : A_AC3
Duration : 1h 39mn
Bit rate mode : Constant
Bit rate : 192 Kbps
Channel(s) : 2 channels
Channel positions : Front: L R
Sampling rate : 48.0 KHz
Bit depth : 16 bits
Compression mode : Lossy
Stream size : 136 MiB (4%)
Title : AC3 48 kHz 2.0 192 kbps MVO Twister
Language : Russian
Default : No
Forced : No
Audio #3
ID : 4
Format : AAC
Format/Info : Advanced Audio Codec
Format profile : LC
Codec ID : A_AAC
Duration : 1h 39mn
Channel(s) : 2 channels
Channel positions : Front: L R
Sampling rate : 48.0 KHz
Compression mode : Lossy
Title : AAC 2.0 VBR Original
Language : French
Default : No
Forced : No
Text
ID : 5
Format : UTF-8
Codec ID : S_TEXT/UTF8
Codec ID/Info : UTF-8 Plain Text
Title : Russian
Language : Russian
Default : No
Forced : No
Menu
00:00:00.000 : en:Chapitre 1
00:10:37.000 : en:Chapitre 2
00:19:33.000 : en:Chapitre 3
00:30:03.000 : en:Chapitre 4
00:38:59.000 : en:Chapitre 5
00:52:15.000 : en:Chapitre 6
01:00:27.000 : en:Chapitre 7
01:10:47.000 : en:Chapitre 8
01:20:40.000 : en:Chapitre 9
01:30:36.000 : en:Chapitre 10
01:37:53.000 : en:Chapitre 11

Скриншоты


_________________
Показать сообщения:    

Текущее время: Сегодня 04:58

Часовой пояс: GMT



Вы не можете начинать темы
Вы не можете отвечать на сообщения
Вы не можете редактировать свои сообщения
Вы не можете удалять свои сообщения
Вы не можете голосовать в опросах
Вы не можете прикреплять файлы к сообщениям
Вы не можете скачивать файлы