Важное объявление!
У Нас Все раздачи мультитрекерные, при нуле пиров в релизах, можете смело вставать на закачку!
Статистика раздачи
Размер:     |    Зарегистрирован:     |    Скачан:     |   
Нет
 
     
 
 
Автор Сообщение

димитри37

Стаж:
4 года 4 месяца
Сообщений:
1236

Репутация: 127

[+] [-]
Вне форума [Профиль] [ЛС]

Неисправимый лгун: правдивая сказка с хорошим концом--
Год выпуска: 1973
Страна: СССР
Жанр: комедия
Продолжительность: 1:11:17--Режиссер: Виллен Азаров--В ролях: Георгий Вицин, Инна Макарова, Николай Прокопович, Владимир Этуш, Эдита Пьеха, Борис Сичкин, Эммануил Геллер, Николай Парфенов, Иван Рыжов, Лариса Барабанова, Валентина Березуцкая, Юрий Цоглин, Валентина Хмара--Описание :Алексей Тютюрин (Вицин) работет парикмахером уже много лет, но его никак не хотят назначить старшим мастером — он вечно опаздывает на работу, а причины опозданий всегда настолько неправдоподобны, что начальник советует ему сначала научиться врать, а потом уже делать это. То Алексей ловит "убежавший" у мальчика мячик в потоке автомобилей, и его обдает водой поливальная машина, то еще что-нибудь. А один раз он вообще золотой портсигар с драгоценными камнями, принадлежащими эмиру (Этуш). Как честный советский человек, он возвращает портсигар Его высочеству, и тот приглашает Алексея на обед. Опять пришлось задержаться с обеденного перерыва. Бывает, что его сбивает проезжающая по дороге на работу сама Эдита Пьеха, а он ее, бесчувственную, относит к себе домой. Естественно, начальник не верит, что он попал под машину, а на диване у него лежит Эдита Пьеха... Справок о случившемся никто не дает. Так повысят Алексея по службе или нет? Легкая, развлекательная комедия с музыкальными вставками, песнями и даже танцами. Более всего привлекает игра Вицина и взаимоотношения героя с женой Зиночкой (Инна Макарова), следящей за тем, чтобы муж бросил курить. (М. Иванов)- -Качество: DVDRip-AVC (Исходник)
Формат: MKV
Видео кодек: x264
Аудио кодек: AC3
Видео: 704x432@750x432 (16/9), 25,000 fps, ~2000 kbps, 0,26 bit/pix
Аудио: (RUS) 48 kHz, AC3 2.0 ch, ~192.00 kbps avg

MediaInfo

General
Complete name : D:\ФИЛЬМЫ\Неисправимый лгун\(1973) Неисправимый лгун.mkv
Format : Matroska
File size : 1.09 GiB
Duration : 1h 11mn
Overall bit rate : 2 195 Kbps
Movie name : (1973) Неисправимый лгун - релиз подготовил -Джон Коннор- для rutracker.org
Encoded date : UTC 2010-06-20 19:07:59
Writing application : mkvmerge v3.0.0 ('Hang up your Hang-Ups') built on Dec 12 2009 15:20:35
Writing library : libebml v0.7.9 + libmatroska v0.8.1
Video
ID : 1
Format : AVC
Format/Info : Advanced Video Codec
Format profile : High@L3.0
Format settings, CABAC : Yes
Format settings, ReFrames : 6 frames
Muxing mode : Container profile=Unknown@3.0
Codec ID : V_MPEG4/ISO/AVC
Duration : 1h 11mn
Bit rate : 1 959 Kbps
Nominal bit rate : 2 001 Kbps
Width : 704 pixels
Height : 432 pixels
Display aspect ratio : 16:9
Original display aspect ratio : 16:9
Frame rate : 25.000 fps
Resolution : 24 bits
Colorimetry : 4:2:0
Scan type : Progressive
Bits/(Pixel*Frame) : 0.258
Stream size : 999 MiB (89%)
Title : (1973) Неисправимый лгун - релиз подготовил -Джон Коннор- для rutracker.org
Writing library : x264 core 79
Encoding settings : cabac=1 / ref=6 / deblock=1:-3:-2 / analyse=0x3:0x113 / me=umh / subme=9 / psy=1 / psy_rd=1.0:0.0 / mixed_ref=1 / me_range=32 / chroma_me=1 / trellis=2 / 8x8dct=1 / cqm=0 / deadzone=21,11 / chroma_qp_offset=-2 / threads=1 / nr=0 / decimate=1 / mbaff=0 / constrained_intra=0 / bframes=6 / b_pyramid=0 / b_adapt=2 / b_bias=0 / direct=1 / wpredb=1 / wpredp=2 / keyint=250 / keyint_min=25 / scenecut=40 / rc_lookahead=50 / rc=2pass / mbtree=1 / bitrate=2001 / ratetol=1.0 / qcomp=0.60 / qpmin=10 / qpmax=51 / qpstep=4 / cplxblur=20.0 / qblur=0.5 / ip_ratio=1.40 / aq=1:1.00
Language : Russian
Color primaries : BT.601-6 525, BT.1358 525, BT.1700 NTSC, SMPTE 170M
Transfer characteristics : BT.709-5, BT.1361
Matrix coefficients : BT.601-6 525, BT.1358 525, BT.1700 NTSC, SMPTE 170M
Audio
ID : 2
Format : AC-3
Format/Info : Audio Coding 3
Codec ID : A_AC3
Duration : 1h 11mn
Bit rate mode : Constant
Bit rate : 192 Kbps
Channel(s) : 2 channels
Channel positions : L R
Sampling rate : 48.0 KHz
Stream size : 97.9 MiB (9%)
Title : Оригинальный
Language : Russian

Скриншоты

FAQ по просмотру MKV/h.264/AAC

-
Показать сообщения:    

Текущее время: Сегодня 14:50

Часовой пояс: GMT



Вы не можете начинать темы
Вы не можете отвечать на сообщения
Вы не можете редактировать свои сообщения
Вы не можете удалять свои сообщения
Вы не можете голосовать в опросах
Вы не можете прикреплять файлы к сообщениям
Вы не можете скачивать файлы