Ивановский Торрент трекер
Яндекс.Погода
 

[Цитировать]
HUNTER

Незнайка на Луне-Год выпуска: 1997-1999
Страна: Россия
Жанр: мультфильм
Продолжительность: 02:31:49
Русские субтитры: нет
Режиссеры: Юрий Бутырин, Андрей Игнатенко, Александр Люткевич
Описание: "Незнайка на Луне" - грандиозный анимационный проект с участием звездных голосов российской эстрады Кристины Орбакайте в роли Звездочки и Валерия Меладзе с песенным хитом, как лейтмотивом фильма.
В очаровательной детской фантастике с захватывающим сюжетом, юмором и добротой за развлекательным жанром кроется глубокий смысл. Наряду с приключениями ребенка ждут жизненно важные знания об экономике, физике и астрономии. Веселая и поучительная история еще раз напомнит о вечных истинах, о том, что добро всегда побеждает зло.
Это интересная и поучительная сказка не оставит никого равнодушным и доставит огромное удовольствие от просмотра.
Релиз:
Благодарность: Отдельное спасибо xfiles за синхронизированную дорожку
Качество: DVDRip-AVC
Формат: MKV
Видео: 694x572 (4:3) @ 754x572, 25.000 fps, AVC, ~2320 Kbps, 0.234 bits/pixel
Аудио: Russian, 48.0 KHz, AC3, 5 ch, 448 Kbps
Cубтитры: отсутствуют
Перемотка по главам: есть
Семпл: http://multi-up.com/619160

Скриншоты

MediaInfo

General
Unique ID : 211439867493841220860018599400949124243 (0x9F11D654560695E9B048543D950B8C93)
Complete name : C:\temp\ne\Незнайка на Луне.mkv
Format : Matroska
Format version : Version 2
File size : 3.00 GiB
Duration : 2h 31mn
Overall bit rate : 2 824 Kbps
Encoded date : UTC 2011-12-26 20:43:09
Writing application : mkvmerge v5.0.1 ('Es ist Sommer') built on Oct 9 2011 11:55:43
Writing library : libebml v1.2.2 libmatroska v1.3.0
Video
ID : 1
Format : AVC
Format/Info : Advanced Video Codec
Format profile : High@L4.0
Format settings, CABAC : Yes
Format settings, ReFrames : 16 frames
Format settings, GOP : M=2, N=3
Codec ID : V_MPEG4/ISO/AVC
Duration : 2h 31mn
Bit rate : 2 320 Kbps
Width : 694 pixels
Height : 572 pixels
Display aspect ratio : 4:3
Original display aspect ratio : 1.213
Frame rate : 25.000 fps
Color space : YUV
Chroma subsampling : 4:2:0
Bit depth : 8 bits
Scan type : Progressive
Bits/(Pixel*Frame) : 0.234
Stream size : 2.46 GiB (82%)
Title : Nyc-2008 / rutracker.org / RG Multfilmy
Writing library : x264 core 120 r2120kMod 0c7dab9
Encoding settings : cabac=1 / ref=16 / deblock=1:0:0 / analyse=0x3:0x113 / me=umh / subme=11 / psy=1 / fade_compensate=0.00 / psy_rd=1.00:0.10 / mixed_ref=1 / me_range=24 / chroma_me=1 / trellis=2 / 8x8dct=1 / cqm=0 / deadzone=21,11 / fast_pskip=0 / chroma_qp_offset=-3 / threads=6 / sliced_threads=0 / nr=0 / decimate=1 / interlaced=0 / bluray_compat=0 / constrained_intra=0 / bframes=12 / b_pyramid=2 / b_adapt=2 / b_bias=0 / direct=1 / weightb=1 / open_gop=0 / weightp=2 / keyint=250 / keyint_min=25 / scenecut=40 / intra_refresh=0 / rc_lookahead=60 / rc=crf / mbtree=1 / crf=19.9900 / qcomp=0.60 / qpmin=0 / qpmax=69 / qpstep=4 / ip_ratio=1.40 / aq=2:1.00
Language : Russian
Audio
ID : 2
Format : AC-3
Format/Info : Audio Coding 3
Mode extension : CM (complete main)
Codec ID : A_AC3
Duration : 2h 31mn
Bit rate mode : Constant
Bit rate : 448 Kbps
Channel(s) : 5 channels
Channel positions : Front: L C R, Side: L R
Sampling rate : 48.0 KHz
Bit depth : 16 bits
Compression mode : Lossy
Stream size : 487 MiB (16%)
Language : Russian
Menu
00:00:00.000 : ru:Intro
00:00:16.000 : ru:01-серия
00:13:14.000 : ru:02-серия
00:25:12.600 : ru:03-серия
00:37:40.000 : ru:04-серия
00:50:00.000 : ru:05-серия
01:02:23.000 : ru:06-серия
01:14:36.000 : ru:07-серия
01:27:18.000 : ru:08-серия
01:40:25.000 : ru:09-серия
01:52:57.000 : ru:10-серия
02:03:42.000 : ru:11-серия
02:17:19.000 : ru:12-серия
Показать сообщения:    

Текущее время: 20-Окт 18:57

Часовой пояс: UTC - 1


Вы не можете начинать темы
Вы не можете отвечать на сообщения
Вы не можете редактировать свои сообщения
Вы не можете удалять свои сообщения
Вы не можете голосовать в опросах
Вы не можете прикреплять файлы к сообщениям
Вы не можете скачивать файлы

!ВНИМАНИЕ!
Сайт не предоставляет электронные версии произведений, а занимается лишь коллекционированием и каталогизацией ссылок, присылаемых и публикуемых на форуме нашими читателями. Если вы являетесь правообладателем какого-либо представленного материала и не желаете, чтобы ссылка на него находилась в нашем каталоге, свяжитесь с нами, и мы незамедлительно удалим ее. Файлы для обмена на трекере предоставлены пользователями сайта, и администрация не несет ответственности за их содержание. Просьба не заливать файлы, защищенные авторскими правами, а также файлы нелегального содержания!