Важное объявление!
У Нас Все раздачи мультитрекерные, при нуле пиров в релизах, можете смело вставать на закачку!
Статистика раздачи
Размер:     |    Зарегистрирован:     |    Скачан:     |   
Нет
 
     
 
 
Автор Сообщение

димитри37

Стаж:
4 года 4 месяца
Сообщений:
1236

Репутация: 127

[+] [-]
Вне форума [Профиль] [ЛС]

Незахороненное тело / Undeparted Body
Страна: Тайланд
Жанр: триллер, мистика
Год выпуска: 2012
Продолжительность: 01:24:09
Перевод: Любительский (двухголосый закадровый) [DeadSno & den904]-перевод на русский язык [DeadSno] - работа со звуком [КОЛОБОК]
Cубтитры: нет
Оригинальная аудиодорожка: нет
Режиссер:Тая Нимчароенпонг / Taya Nimcharoenpong
В ролях: Дуйдждао Дуангпрадаб, Ами Сирия, Нат Авитра Сирасарт, Ворравит Каевпетх
Описание: Молодая девушка арендует дом, чтобы жить там со своим возлюбленным. Но любимый как-то не особо спешит в любовное гнездышко, предпочитая проводить время в барах с женщинами и лучшим другом, с которым щедро делится и "своими" деньгами и своими любовницами. Очевидно, что ее возлюбленный разделяет женщин на полезных и красивых. Нещадно эксплуатируя познания своей подруги в бухгалтерии, он сливает деньги фирмы своего отца на левый счет, на что и кутит, кормя доверчивую девушку обещаниями светлой и счастливой совместной жизни в будущем. Однако легко ставит свою любовь на кон в бильярде. Ожидая своего парня, Пин начинают видеть какие-то странности и через некоторое время она узнает, что она лишь одна из использованных им наивных дурочек, которые выбрасываются, как только исчерпывают свою полезность...
Сэмпл: http://multi-up.com/860195
Качество видео: DVDRip
Формат видео: AVI
Видео: 720x400 (1.80:1), 25 fps, XviD MPEG-4 ~1010 kbps avg, 0.14 bit/pixel
Аудио: 48 kHz, MPEG Layer 3, 2 ch, ~128.00 kbps avg

MediaInfo

Общее
Полное имя : C:\кино\фильмы\Nezahoronennoe telo.2012.L2.DVDRip.GOLIAF.TV.avi
Формат : AVI
Формат/Информация : Audio Video Interleave
Размер файла : 691 Мбайт
Продолжительность : 1 ч. 24 м.
Общий поток : 1148 Кбит/сек
Программа кодирования : VirtualDubMod 1.5.10.2 (build 2540/release)
Библиотека кодирования : VirtualDubMod build 2540/release
Видео
Идентификатор : 0
Формат : MPEG-4 Visual
Профиль формата : Advanced Simple@L5
Параметр BVOP формата : 2
Параметр QPel формата : Нет
Параметр GMC формата : Без точки перехода
Параметр матрицы формата : Default (H.263)
Режим смешивания : Сжатый битовый поток
Идентификатор кодека : XVID
Идентификатор кодека/Подсказка : XviD
Продолжительность : 1 ч. 24 м.
Битрейт : 1010 Кбит/сек
Ширина : 720 пикселей
Высота : 400 пикселей
Соотношение сторон : 16:9
Частота кадров : 25,000 кадров/сек
Цветовое пространство : YUV
Субдискретизация насыщенности : 4:2:0
Битовая глубина : 8 бит
Тип развёртки : Прогрессивная
Метод сжатия : С потерями
Бит/(Пиксели*Кадры) : 0.140
Размер потока : 608 Мбайт (88%)
Библиотека кодирования : XviD 64
Аудио
Идентификатор : 1
Формат : MPEG Audio
Версия формата : Version 1
Профиль формата : Layer 3
Режим : Joint stereo
Расширение режима : MS Stereo
Идентификатор кодека : 55
Идентификатор кодека/Подсказка : MP3
Продолжительность : 1 ч. 24 м.
Вид битрейта : Постоянный
Битрейт : 128 Кбит/сек
Каналы : 2 канала
Частота : 48,0 КГц
Метод сжатия : С потерями
Размер потока : 77,0 Мбайт (11%)
Выравнивание : Соединение по промежуткам
Продолжительность промежутка : 40 мс. (1,00 видеокадр)
Время предзагрузки промежутка : 504 мс.

Скриншоты

Показать сообщения:    

Текущее время: Сегодня 04:36

Часовой пояс: GMT



Вы не можете начинать темы
Вы не можете отвечать на сообщения
Вы не можете редактировать свои сообщения
Вы не можете удалять свои сообщения
Вы не можете голосовать в опросах
Вы не можете прикреплять файлы к сообщениям
Вы не можете скачивать файлы