Важное объявление!
У Нас Все раздачи мультитрекерные, при нуле пиров в релизах, можете смело вставать на закачку!
 
Автор Сообщение

димитри37

Стаж:
3 года 10 месяцев
Сообщений:
1237

Репутация: 127

[+] [-]
Вне форума [Профиль] [ЛС]

Невероятные приключения американца в Армении / Lost and Found in Armenia
Страна: США, Армения
Жанр: комедия
Год выпуска: 2012
Продолжительность: 01:40:07
Перевод: Отсутствует
Cубтитры: русские hardsub (неотключаемые)
Оригинальная аудиодорожка: Армянская
Режиссер: Гор Киракосян / Gor Kirakosian
В ролях: Джейми Кеннеди, Анджела Сарафян, Дейв Шеридан, Сердар Кэлсин, Мориса Харба ,Алекс Калогномос, Бобби Беркмен, Вачик Мангассариан, Марк Герагос, Микаел Погосян
Описание: На морском побережье солнечной Турции царит беззаботное веселье, и только сын американского сенатора страдает от несчастной любви. Ничто не может вернуть ему вкус к жизни — ни море, ни друзья, ни красивые девушки. Но неожиданное событие вмиг излечивает героя от хандры: «попутный» ветер уносит его в соседнюю Армению, в маленькую горную деревню, где его — полуголого, с парашютом за спиной и говорящего на непонятном языке — принимают за турецко-азербайджанского шпиона. В стране, о существовании которой самонадеянный американец еще вчера даже не догадывался, его ждет невероятный водоворот событий — с похищением, перестрелкой, погоней и, конечно же, романтической историей…

Качество видео: DVDRip
Формат видео: AVI
Видео: Xvid 640x360 23.976fps 894kbps
Аудио: MP3 48000Hz stereo 121kbps

MediaInfo

General
Format : AVI
Format/Info : Audio Video Interleave
File size : 742 MiB
Duration : 1h 40mn
Overall bit rate : 1 029 Kbps
Writing application : MEncoder Sherpya-SVN-r32492-4.2.5
Writing library : VirtualDub build 32661/release
Video
ID : 0
Format : MPEG-4 Visual
Format profile : Simple@L3
Format settings, BVOP : No
Format settings, QPel : No
Format settings, GMC : No warppoints
Format settings, Matrix : Default (H.263)
Codec ID : XVID
Codec ID/Hint : XviD
Duration : 1h 40mn
Bit rate : 895 Kbps
Width : 640 pixels
Height : 360 pixels
Display aspect ratio : 16:9
Frame rate : 23.976 fps
Color space : YUV
Chroma subsampling : 4:2:0
Bit depth : 8 bits
Scan type : Progressive
Compression mode : Lossy
Bits/(Pixel*Frame) : 0.162
Stream size : 645 MiB (87%)
Writing library : XviD 1.2.1 (UTC 2008-12-04)
Audio
ID : 1
Format : MPEG Audio
Format version : Version 1
Format profile : Layer 3
Mode : Joint stereo
Mode extension : MS Stereo
Codec ID : 55
Codec ID/Hint : MP3
Duration : 1h 40mn
Bit rate mode : Constant
Bit rate : 32.0 Kbps
Channel(s) : 2 channels
Sampling rate : 48.0 KHz
Compression mode : Lossy
Stream size : 87.6 MiB (12%)
Alignment : Aligned on interleaves
Interleave, duration : 24 ms (0.58 video frame)
Interleave, preload duration : 132 ms
Writing library : LAME3.98.4ЄЄЄЄЄЄЄЄЄЄ
Показать сообщения:    

Текущее время: Сегодня 05:02

Часовой пояс: GMT



Вы не можете начинать темы
Вы не можете отвечать на сообщения
Вы не можете редактировать свои сообщения
Вы не можете удалять свои сообщения
Вы не можете голосовать в опросах
Вы не можете прикреплять файлы к сообщениям
Вы не можете скачивать файлы
Наши партнеры: интернет магазин Ивановского трикотажа textilla.ru