Важное объявление!
У Нас Все раздачи мультитрекерные, при нуле пиров в релизах, можете смело вставать на закачку!
 
Автор Сообщение

HUNTER

Стаж:
4 года 9 месяцев
Сообщений:
65047

Репутация: 101

[+] [-]
Вне форума [Профиль] [ЛС]

Невероятные истории / Необычные сказки / Extraordinary Tales
Страна: США, Люксембург, Бельгия, Испания
Жанр: мультфильм, мистика
Продолжительность: 01:12:52
Год выпуска: 2015
Перевод: Одноголосый закадровый (Max Nabokov)
Русские субтитры: нет
Режиссёр: Рауль Гарсиа / Raul Garcia
Роли озвучивали: Кристофер Ли, Бела Лугоши, Джулиан Сэндз, Гильермо Дель Торо, Корнелия Функе, Стивен Хьюг, Роджер Корман
Описание: Душа Эдгара Аллана По, предстает в образе своего печально известного ворона. На кладбище у могилы его горячо любимой жены Вирджинии он встречается со смертью. Смерть говорит, что путь его в этом бренном мире окончен и желает забрать душу писателя с собой. Но Эдгар старается оттянуть время, рассказывая смерти свои невероятные истории переча ее утверждениям. Тем самым в этой жуткой повествовательной игре со смертью ему удается задержаться подольше на земле среди живых.
Необычная авторская интерпретация на произведения Эдгара Аллана По: «Падение дома Ашеров», «Колодец и маятник», «Маска Красной смерти», «Сердце-обличитель» и «Правда о том, что случилось с мистером Вальдемаром». На первый взгляд ничем не схожие друг с другом рассказы, но если вглядеться в них повнимательней, то все они имеют одну общую черту.
Семпл
Качество: HDRip [Extraordinary.Tales.2015.UNRATED.720p.WEB-DL.DD5.1.H.264-CtrlHD.mkv]
Формат: AVI
Видео: 720x384 (1.88:1), 23.976 fps, XviD build 50 ~2290 kbps avg, 0.35 bit/pixel
Аудио 1: 48 kHz, AC3 Dolby Digital, 3/2 (L,C,R,l,r) + LFE ch, ~384.00 kbps avg
Аудио 2: 48 kHz, AC3 Dolby Digital, 3/2 (L,C,R,l,r) + LFE ch, ~384.00 kbps avg (анг. отдельный файл)

Подробные технические данные

GeneralComplete name : D:\MOVIE\Extraordinary Tales\Extraordinary.Tales.2015.HDRip.XviD.AC3.(Max Nabokov).aviFormat : AVIFormat/Info : Audio Video InterleaveFile size : 1.37 GiBDuration : 1h 12mnOverall bit rate : 2 684 KbpsWriting application : VirtualDubMod 1.5.10.3 | www.virtualdub-fr.org || (build 2550/release)Writing library : VirtualDubMod build 2550/release
VideoID : 0Format : MPEG-4 VisualFormat profile : Advanced Simple@L5Format settings, BVOP : 1Format settings, QPel : NoFormat settings, GMC : No warppointsFormat settings, Matrix : Default (H.263)Codec ID : XVIDCodec ID/Hint : XviDDuration : 1h 12mnBit rate : 2 290 KbpsWidth : 720 pixelsHeight : 384 pixelsDisplay aspect ratio : 1.85:1Frame rate : 23.976 fpsColor space : YUVChroma subsampling : 4:2:0Bit depth : 8 bitsScan type : ProgressiveCompression mode : LossyBits/(Pixel*Frame) : 0.345Stream size : 1.17 GiB (85%)Writing library : XviD 1.2.1 (UTC 2008-12-04)
AudioID : 1Format : AC-3Format/Info : Audio Coding 3Mode extension : CM (complete main)Format settings, Endianness : BigCodec ID : 2000Duration : 1h 12mnBit rate mode : ConstantBit rate : 384 KbpsChannel(s) : 6 channelsChannel positions : Front: L C R, Side: L R, LFESampling rate : 48.0 KHzCompression mode : LossyStream size : 200 MiB (14%)Alignment : Split accross interleavesInterleave, duration : 42 ms (1.00 video frame)Interleave, preload duration : 500 ms

_________________
Показать сообщения:    

Текущее время: Сегодня 20:37

Часовой пояс: GMT



Вы не можете начинать темы
Вы не можете отвечать на сообщения
Вы не можете редактировать свои сообщения
Вы не можете удалять свои сообщения
Вы не можете голосовать в опросах
Вы не можете прикреплять файлы к сообщениям
Вы не можете скачивать файлы