Невероятно худеющий человек / Невероятные приключения исчезающего человека / The Incredible Shrinking Man (Джек Арнольд / Jack Arnold) [1957, США, Фантастика, HDTVRip 720p] MVO + Sub Eng + Original Eng :: Ивановский Торрент трекер
Важное объявление!
У Нас Все раздачи мультитрекерные, при нуле пиров в релизах, можете смело вставать на закачку!
 
Автор Сообщение

HUNTER

Стаж:
4 года 11 месяцев
Сообщений:
66051

Репутация: 101

[+] [-]
Вне форума [Профиль] [ЛС]

Невероятные приключения исчезающего человека / The Incredible Shrinking Man
-Страна: США
Жанр: Фантастика
Год выпуска: 1957
Продолжительность: 01:20:49-Перевод 1: Профессиональный (многоголосый закадровый)
Cубтитры: английские
Оригинальная аудиодорожка: английский-Режиссер: Джек Арнольд / Jack Arnold-В ролях: Грант Уильямс, Рэнди Стюарт, Эйприл Кент, Пол Лэнгтон, Реймонд Бэйли-Описание:
Скотт Кэри, плавая на лодке, попадает в загадочный радиоактивный туман, и вскоре понимает, что в его жизни произошел странный и пугающий поворот. Он начинает уменьшаться буквально на глазах, и постепенно его рост доходит почти до двух дюймов.
И вдруг вполне обычные повседневные домашние ситуации оборачиваются для него совершенно неразрешимыми и даже опасными для жизни задачами: игривый котенок становится страшным демоном, а паук — гигантским чудовищем.
Кэри осознает, что может рассчитывать только на собственную сообразительность, если хочет выжить в новом, слишком большом для него мире.-Сэмпл: Скачать-Тип релиза: HDTVRip 720p
Контейнер: MKV-Видео: 1280x690 (1.85:1); 4 321 Kbps; 23.976 fps; 0.204 bpp
Аудио 1: Russian; AC3; 48.0 KHz; 2ch; 192 Kbps
Аудио 2: English; AC3; 48.0 KHz; 2ch; 192 Kbps
Формат субтитров: softsub (SRT)

MediaInfo

Format : Matroska
Format version : Version 4 / Version 2
File size : 2.66 GiB
Duration : 1h 20mn
Overall bit rate : 4 706 Kbps
Encoded date : UTC 2014-11-04 18:04:35
Writing application : mkvmerge v7.2.0 ('On Every Street') 64bit built on Sep 13 2014 15:52:10
Writing library : libebml v1.3.0 + libmatroska v1.4.1
Attachements : IncredibleShrinkingMan1.jpg / IncredibleShrinkingMan2.jpg / IncredibleShrinkingMan3.jpg / IncredibleShrinkingMan4.jpg / IncredibleShrinkingMan5.jpg / IncreibleHombreMenguante.jpg
DURATION : 01:20:49.664000000
NUMBER_OF_FRAMES : 151552
NUMBER_OF_BYTES : 116391936
_STATISTICS_WRITING_APP : mkvmerge v7.2.0 ('On Every Street') 64bit built on Sep 13 2014 15:52:10
_STATISTICS_WRITING_DATE_UTC : 2014-11-04 18:04:35
_STATISTICS_TAGS : BPS DURATION NUMBER_OF_FRAMES NUMBER_OF_BYTES
Video
ID : 1
Format : AVC
Format/Info : Advanced Video Codec
Format profile : High@L4.1
Format settings, CABAC : Yes
Format settings, ReFrames : 9 frames
Codec ID : V_MPEG4/ISO/AVC
Duration : 1h 20mn
Bit rate : 4 321 Kbps
Width : 1 280 pixels
Height : 690 pixels
Display aspect ratio : 1.85:1
Frame rate mode : Constant
Frame rate : 23.976 fps
Color space : YUV
Chroma subsampling : 4:2:0
Bit depth : 8 bits
Scan type : Progressive
Bits/(Pixel*Frame) : 0.204
Stream size : 2.39 GiB (90%)
Writing library : x264 core 133 r2334 a3ac64b
Encoding settings : cabac=1 / ref=9 / deblock=1:-2:-2 / analyse=0x3:0x133 / me=umh / subme=10 / psy=1 / psy_rd=1.00:0.25 / mixed_ref=1 / me_range=24 / chroma_me=1 / trellis=2 / 8x8dct=1 / cqm=0 / deadzone=6,6 / fast_pskip=1 / chroma_qp_offset=-4 / threads=6 / lookahead_threads=1 / sliced_threads=0 / nr=0 / decimate=0 / interlaced=0 / bluray_compat=0 / constrained_intra=0 / bframes=8 / b_pyramid=2 / b_adapt=2 / b_bias=0 / direct=3 / weightb=1 / open_gop=0 / weightp=2 / keyint=250 / keyint_min=23 / scenecut=40 / intra_refresh=0 / rc_lookahead=60 / rc=2pass / mbtree=1 / bitrate=4321 / ratetol=1.0 / qcomp=0.80 / qpmin=0 / qpmax=69 / qpstep=4 / cplxblur=20.0 / qblur=0.5 / ip_ratio=1.10 / aq=1:0.50
Language : English
Default : Yes
Forced : No
DURATION : 01:20:48.928000000
NUMBER_OF_FRAMES : 116258
NUMBER_OF_BYTES : 2617504172
_STATISTICS_WRITING_APP : mkvmerge v7.2.0 ('On Every Street') 64bit built on Sep 13 2014 15:52:10
_STATISTICS_WRITING_DATE_UTC : 2014-11-04 18:04:35
_STATISTICS_TAGS : BPS DURATION NUMBER_OF_FRAMES NUMBER_OF_BYTES
Audio #1
ID : 2
Format : AC-3
Format/Info : Audio Coding 3
Mode extension : CM (complete main)
Format settings, Endianness : Big
Codec ID : A_AC3
Duration : 1h 20mn
Bit rate mode : Constant
Bit rate : 192 Kbps
Channel(s) : 2 channels
Channel positions : Front: L R
Sampling rate : 48.0 KHz
Bit depth : 16 bits
Compression mode : Lossy
Stream size : 111 MiB (4%)
Title : MVO
Language : Russian
Default : Yes
Forced : No
Audio #2
ID : 3
Format : AC-3
Format/Info : Audio Coding 3
Mode extension : CM (complete main)
Format settings, Endianness : Big
Codec ID : A_AC3
Duration : 1h 20mn
Bit rate mode : Constant
Bit rate : 192 Kbps
Channel(s) : 2 channels
Channel positions : Front: L R
Sampling rate : 48.0 KHz
Bit depth : 16 bits
Compression mode : Lossy
Delay relative to video : 14ms
Stream size : 111 MiB (4%)
Language : English
Default : No
Forced : No
Text
ID : 4
Format : UTF-8
Codec ID : S_TEXT/UTF8
Codec ID/Info : UTF-8 Plain Text
Language : English
Default : No
Forced : No
Menu
00:00:00.000 : en:Chapter 01
00:01:20.000 : en:Chapter 02
00:04:27.367 : en:Chapter 03
00:06:59.734 : en:Chapter 04
00:10:31.834 : en:Chapter 05
00:16:37.134 : en:Chapter 06
00:21:29.035 : en:Chapter 07
00:26:35.836 : en:Chapter 08
00:30:48.403 : en:Chapter 09
00:36:58.737 : en:Chapter 10
00:42:38.304 : en:Chapter 11
00:46:43.671 : en:Chapter 12
00:52:55.405 : en:Chapter 13
01:02:40.839 : en:Chapter 14
01:06:33.939 : en:Chapter 15
01:10:50.773 : en:Chapter 16
01:17:40.940 : en:Chapter 17
01:20:13.674 : en:Chapter 18
01:20:44.375 : en:Chapter 19

Скриншоты


_________________
Показать сообщения:    

Текущее время: Сегодня 00:31

Часовой пояс: GMT



Вы не можете начинать темы
Вы не можете отвечать на сообщения
Вы не можете редактировать свои сообщения
Вы не можете удалять свои сообщения
Вы не можете голосовать в опросах
Вы не можете прикреплять файлы к сообщениям
Вы не можете скачивать файлы