Важное объявление!
У Нас Все раздачи мультитрекерные, при нуле пиров в релизах, можете смело вставать на закачку!
Статистика раздачи
Размер:     |    Зарегистрирован:     |    Скачан:     |   
Нет
 
     
 
 
Автор Сообщение

HUNTER

Стаж:
5 лет
Сообщений:
67935

Репутация: 101

[+] [-]
Вне форума [Профиль] [ЛС]

Невероятно расплавленный человек / Невероятно расплавлящийся человек / The Incredible Melting Man
Страна: США
Студия: 1977
Жанр: фантастика, ужасы
Год выпуска: 1977
Продолжительность: 01:26:11
Перевод: Авторский (одноголосый закадровый) Кашкин
Cубтитры: нет
Оригинальная аудиодорожка: английский
Режиссер: Уильям Сэкс / William Sachs
В ролях: Алекс Ребар, Майрон Хили, Майкл Олдридж
Описание: НАСА посылает трех астронавтов к Сатурну. Но космический корабль оказывается слишком близко к поверхности солнца, и космонавты подвергаются нападению невидимой силы. Полковник Стив Уэст, единственный выживший в этой космической миссии, возвращается на Землю. Он подвержен симптомам странной болезни и оказывается на больничной кровати. Он начинает выделять какую-то желатиновую массу. Оказывается, Уэст подвергся сильному воздействию радиации. Но чем сильнее он плавится, тем сильнее он становится. Уэст сходит с ума и начинает убивать людей. Даже его близкий друг, доктор Тед Нельсон, следующий за ним со счетчиком Гейгера, ничем не может ему помочь. В конце концов, Уэст расплавляется полностью и исчезает…
Снятый до ЧУЖОГО, фильм с очень качественным гримом и спецэффектами. Возможно, именно из него были позаимствованы знаменитые сопли "чужих" (ими постоянно истекал главный герой, разлагаясь). Один из последних фильмов компании «AIP». Грим сделали Рик Бейкер, который позднее работал над картиной «Невероятно сморщенная женщина» (1981) и Грэг Кэнном. В маленькой роли появился впоследствии известный режиссер Джонатан Демме. Бюджет фильма был настолько маленьким, что его создателям не удалось приобрести права на документальные съемки Сатурна, поэтому им пришлось использовать съемки солнца и луны, находившиеся в общественном пользовании.
Доп. информация: Русская звуковая дорожка взята сэтой раздачи http://rutracker.org/forum/viewtopic.php?t=4682487 автору большое спасибо.
За синхронизацию огромное спасибо Нордер.
При пересборе двд были использованы программы:
PgcDemux - разделение компонентов диска на файлы
Muxman - мультиплексирование и авторинг DVD
VobBlanker - реавторинг DVD

Скрин завершения проекта

Бонусы: Трейлеры, галерея
Сэмпл: http://sendfile.su/1095212
Тип релиза: DVD9 (Custom)
Контейнер: DVD-Video
Видео: PAL 16:9 (720x576) VBR Auto Pan&Scan
Аудио: Russian (Dolby AC3, 192 Кбит/сек, 2 ch)
Аудио 2: Deutsch (Dolby AC3, 192 Кбит/сек, 2 ch)
Аудио 3: English (Dolby AC3, 192 Кбит/сек, 2 ch)

DVDInfo

Size: 7.87 Gb ( 8 250 858 KBytes ) - DVD-9
Enabled regions: 1, 2, 3, 4, 5, 6, 7, 8
VTS_01 :
Play Length: 00:00:30
Video: PAL 16:9 (720x576) VBR, Auto Pan&Scan
Audio:
Not specified (Dolby AC3, 2 ch)
VTS_02 :
Play Length: 01:26:11
Video: PAL 16:9 (720x576) VBR, Auto Pan&Scan
Audio:
Russian (Dolby AC3, 2 ch)
Deutsch (Dolby AC3, 2 ch)
English (Dolby AC3, 2 ch)
VTS_03 :
Play Length: 00:01:02
Video: PAL 16:9 (720x576) VBR, Auto Pan&Scan
Audio:
Deutsch (Dolby AC3, 2 ch)
VTS_04 :
Play Length: 00:04:45
Video: PAL 16:9 (720x576) VBR, Auto Pan&Scan
Audio:
Not specified (Dolby AC3, 2 ch)
VTS_05 :
Play Length: 01:25:12
Video: PAL 4:3 (720x576) VBR
Audio:
Deutsch (Dolby AC3, 1 ch)
English (Dolby AC3, 1 ch)
Subtitles:
Deutsch
Deutsch
Deutsch
Deutsch
Deutsch
Deutsch
Deutsch
Deutsch
Deutsch
Deutsch
Deutsch
Deutsch
Deutsch
Deutsch
Deutsch
Deutsch
VTS_06 :
Play Length: 01:18:42
Video: PAL 16:9 (720x576) VBR, Auto Pan&Scan
Audio:
Deutsch (Dolby AC3, 2 ch)
Menu Video:
PAL 16:9 (720x576) VBR
Auto Pan&Scan, Auto Letterboxed
Menu English Language Unit :
Root Menu

MediaInfo

Общее
Полное имя : M:\The Incredible Melting Man_1977\VIDEO_TS\VTS_02_1.VOB
Формат : MPEG-PS
Размер файла : 1024 Мбайт
Продолжительность : 21 м.
Режим общего битрейта : Переменный
Общий поток : 6689 Кбит/сек
Видео
Идентификатор : 224 (0xE0)
Формат : MPEG Video
Версия формата : Version 2
Профиль формата : Main@Main
Параметр BVOP формата : Да
Параметр матрицы формата : Выборочная
Продолжительность : 21 м.
Вид битрейта : Переменный
Битрейт : 5980 Кбит/сек
Максимальный битрейт : 7800 Кбит/сек
Ширина : 720 пикселей
Высота : 576 пикселей
Соотношение сторон : 16:9
Частота кадров : 25,000 кадров/сек
Стандарт вещания : PAL
Цветовое пространство : YUV
Субдискретизация насыщенности : 4:2:0
Битовая глубина : 8 бит
Тип развёртки : Чересстрочная
Порядок развёртки : Верхнее поле первое
Метод сжатия : С потерями
Бит/(Пиксели*Кадры) : 0.577
Размер потока : 915 Мбайт (89%)
Аудио #1
Идентификатор : 189 (0xBD)-128 (0x80)
Формат : AC-3
Формат/Информация : Audio Coding 3
Расширение режима : CM (complete main)
Параметр Endianness формата : Big
Режим смешивания : DVD-Video
Продолжительность : 21 м.
Вид битрейта : Постоянный
Битрейт : 192 Кбит/сек
Каналы : 2 канала
Расположение каналов : Front: L R
Частота : 48,0 КГц
Битовая глубина : 16 бит
Метод сжатия : С потерями
Размер потока : 29,4 Мбайт (3%)
Аудио #2
Идентификатор : 189 (0xBD)-129 (0x81)
Формат : AC-3
Формат/Информация : Audio Coding 3
Расширение режима : CM (complete main)
Параметр Endianness формата : Big
Режим смешивания : DVD-Video
Продолжительность : 21 м.
Вид битрейта : Постоянный
Битрейт : 192 Кбит/сек
Каналы : 2 канала
Расположение каналов : Front: L R
Частота : 48,0 КГц
Битовая глубина : 16 бит
Метод сжатия : С потерями
Размер потока : 29,4 Мбайт (3%)
Аудио #3
Идентификатор : 189 (0xBD)-130 (0x82)
Формат : AC-3
Формат/Информация : Audio Coding 3
Расширение режима : CM (complete main)
Параметр Endianness формата : Big
Режим смешивания : DVD-Video
Продолжительность : 21 м.
Вид битрейта : Постоянный
Битрейт : 192 Кбит/сек
Каналы : 2 канала
Расположение каналов : Front: L R
Частота : 48,0 КГц
Битовая глубина : 16 бит
Метод сжатия : С потерями
Размер потока : 29,4 Мбайт (3%)
Меню

Скриншоты меню


_________________
Показать сообщения:    

Текущее время: Сегодня 00:45

Часовой пояс: GMT



Вы не можете начинать темы
Вы не можете отвечать на сообщения
Вы не можете редактировать свои сообщения
Вы не можете удалять свои сообщения
Вы не можете голосовать в опросах
Вы не можете прикреплять файлы к сообщениям
Вы не можете скачивать файлы