Ивановский Торрент трекер
Яндекс.Погода
 

[Цитировать]
HUNTER

Невада Смит / Nevada Smith
Страна: США
Студия: Paramount Pictures
Жанр: вестерн
Год выпуска: 1966
Продолжительность: 02:11:13
Перевод: Профессиональный (многоголосый закадровый) Петербург 5-й канал
Перевод 2: Одноголосый закадровый Александр Силин
Cубтитры: английские
Оригинальная аудиодорожка: английский
Режиссер: Генри Хэтэуэй / Henry Hathaway
В ролях: Стив МакКуин, Карл Молден, Брайан Кит, Артур Кеннеди, Сюзанн Плешетт, Раф Валлоне, Джанет Марголин, Пэт Хингл, Ховард Да Сильва, Мартин Ландау
Описание: Ковбой, чья семья пала жертвой бессмысленной резни, через несколько лет выслеживает и сводит счеты с убийцами. По роману известного американского писателя Гарольда Роббинса "Охотники за удачей".

Sample
Тип релиза: WEB-DL 720p
Контейнер: MKV
Видео: MPEG4 AVC Video, H264, 1280x542, 23.976 fps, 3994 kbps
Аудио: Russian (AC3, 2 ch, 192 kbps, 16 bits, 48.0 KHz) - MVO
Аудио 2: Russian (AC3, 2 ch, 192 kbps, 16 bits, 48.0 KHz) - VO
Аудио 3: English (AC3, 2 ch, 192 kbps, 16 bits, 48.0 KHz) - оригинал
Формат субтитров: softsub (SRT)

MediaInfo

General
Unique ID : 241773401069260142257281478695005725431 (0xB5E3DD0069EB70D1A0C9D2708FCC22F7)
Complete name : E:\Nevada Smith 1966 WEB-DL 720p.mkv
Format : Matroska
Format version : Version 4 / Version 2
File size : 4.27 GiB
Duration : 2h 11mn
Overall bit rate : 4 663 Kbps
Encoded date : UTC 2015-10-27 21:26:50
Writing application : mkvmerge v6.1.0 ('Old Devil') built on Mar 2 2013 14:32:37
Writing library : libebml v1.3.0 + libmatroska v1.4.0
Video
ID : 1
Format : AVC
Format/Info : Advanced Video Codec
Format profile : Main@L3.1
Format settings, CABAC : No
Format settings, ReFrames : 2 frames
Codec ID : V_MPEG4/ISO/AVC
Duration : 2h 11mn
Bit rate : 3 994 Kbps
Width : 1 280 pixels
Height : 542 pixels
Display aspect ratio : 2.35:1
Frame rate mode : Constant
Frame rate : 23.976 fps
Color space : YUV
Chroma subsampling : 4:2:0
Bit depth : 8 bits
Scan type : Progressive
Bits/(Pixel*Frame) : 0.240
Stream size : 3.66 GiB (86%)
Language : English
Default : Yes
Forced : No
Color primaries : BT.709
Transfer characteristics : BT.709
Matrix coefficients : BT.709
Audio #1
ID : 2
Format : AC-3
Format/Info : Audio Coding 3
Mode extension : CM (complete main)
Format settings, Endianness : Big
Codec ID : A_AC3
Duration : 2h 11mn
Bit rate mode : Constant
Bit rate : 192 Kbps
Channel count : 2 channels
Channel positions : Front: L R
Sampling rate : 48.0 KHz
Bit depth : 16 bits
Compression mode : Lossy
Stream size : 180 MiB (4%)
Title : Петербург 5-й канал
Language : Russian
Default : Yes
Forced : No
Audio #2
ID : 3
Format : AC-3
Format/Info : Audio Coding 3
Mode extension : CM (complete main)
Format settings, Endianness : Big
Codec ID : A_AC3
Duration : 2h 11mn
Bit rate mode : Constant
Bit rate : 192 Kbps
Channel count : 2 channels
Channel positions : Front: L R
Sampling rate : 48.0 KHz
Bit depth : 16 bits
Compression mode : Lossy
Stream size : 180 MiB (4%)
Title : Александр Силин
Language : Russian
Default : No
Forced : No
Audio #3
ID : 4
Format : AC-3
Format/Info : Audio Coding 3
Mode extension : CM (complete main)
Format settings, Endianness : Big
Codec ID : A_AC3
Duration : 2h 11mn
Bit rate mode : Constant
Bit rate : 192 Kbps
Channel count : 2 channels
Channel positions : Front: L R
Sampling rate : 48.0 KHz
Bit depth : 16 bits
Compression mode : Lossy
Stream size : 180 MiB (4%)
Language : English
Default : No
Forced : No
Text
ID : 5
Format : UTF-8
Codec ID : S_TEXT/UTF8
Codec ID/Info : UTF-8 Plain Text
Language : English
Default : No
Forced : No
Menu
00:00:00.000 : en:The Murder Of Max Sand's Family
00:10:15.000 : en:Setting Out For Revenge
00:23:03.000 : en:Jonas Cord
00:28:42.000 : en:Studying Up
00:34:12.000 : en:Going Where The Money Is
00:40:22.000 : en:Killing Jesse Coe
00:47:45.000 : en:Neesa
00:52:15.000 : en:Looking For Names
00:55:46.000 : en:"The Word Is Apprehended"
01:08:13.000 : en:Enemies And Friends
01:20:48.000 : en:Dying In Sin
01:33:08.000 : en:Mean As Tom Fitch
01:41:14.000 : en:Father Zaccardi
01:48:53.000 : en:"Smith... Nevada Smith."
01:56:54.000 : en:Aiming To Kill
02:05:05.000 : en:"Finish Me!"

Скриншоты



Показать сообщения:    

Текущее время: 15-Дек 06:38

Часовой пояс: UTC ± 0


Вы не можете начинать темы
Вы не можете отвечать на сообщения
Вы не можете редактировать свои сообщения
Вы не можете удалять свои сообщения
Вы не можете голосовать в опросах
Вы не можете прикреплять файлы к сообщениям
Вы не можете скачивать файлы

!ВНИМАНИЕ!
Сайт не предоставляет электронные версии произведений, а занимается лишь коллекционированием и каталогизацией ссылок, присылаемых и публикуемых на форуме нашими читателями. Если вы являетесь правообладателем какого-либо представленного материала и не желаете, чтобы ссылка на него находилась в нашем каталоге, свяжитесь с нами, и мы незамедлительно удалим ее. Файлы для обмена на трекере предоставлены пользователями сайта, и администрация не несет ответственности за их содержание. Просьба не заливать файлы, защищенные авторскими правами, а также файлы нелегального содержания!