Важное объявление!
У Нас Все раздачи мультитрекерные, при нуле пиров в релизах, можете смело вставать на закачку!
 
Автор Сообщение

HUNTER

Стаж:
4 года 8 месяцев
Сообщений:
62035

Репутация: 101

[+] [-]
Вне форума [Профиль] [ЛС]

Небесный замок Лапута / Laputa: The Castle in the Sky / Tenku no shiro Rapyuta / 天空の城ラピュタ
-
Страна: Япония
Год выпуска: 1986 г.
Жанр: фантастика, фэнтези, приключения, семейный
Продолжительность: 02:04:33
Режиссер: Хаяо Миядзаки / Hayao Miyazaki
Студия: Studio Ghibli
-
Описание: Альтернативная реальность, соответствующая началу XX века. В руках девочки по имени Сита находится Летающий Камень. За ним охотятся агенты правительства и пираты, потому что Камень представляет огромную ценность. Пытаясь скрыться от преследователей, Сита встречает Пазу, своего ровесника, работающего в шахтерском городке. Вместе дети выясняют, что Камень — ключ к таинственному летающему острову Лапуте…
-

-
Качество: BDRip ([Cornflower Studio]天空の城ラピュタ(Laputa Castle in the Sky 1986) BDRip 1920X1036[Hi10p])
Тип релиза: Без хардсаба
Формат видео: MKV
Наличие линковки: Нет
Видео: AVC, 1920x1036 (1.853) Hi10P, ~2891 Кбит/с, 23.976 fps
Аудио 1: Русский, AC3, 192 Кбит/с, 48000Hz, 2 ch (в составе контейнера) Дублированый [RUSCICO]
Аудио 2: Английский, AC3, 640 Кбит/с, 48000Hz, 6 ch (в составе контейнера) Дублированый
Аудио 3: Японский, FLAC, 507 Кбит/с, 48000Hz, 2 ch (в составе контейнера) Оригинал
Аудио 4: Русский, AC3, 192 Кбит/с, 48000Hz, 2 ch (внешним файлом) Многоголосый, закадровый [Киномания]
Аудио 5: Русский, AC3, 384 Кбит/с, 48000Hz, 2 ch (внешним файлом) Двухголосый, закадровый [П.Гланц, И.Королёва]
Аудио 6: Русский, AC3, 192 Кбит/с, 48000Hz, 2 ch (внешним файлом) Двухголосый, закадровый [Tycoon]
Аудио 7: Русский, AC3, 384 Кбит/с, 48000Hz, 2 ch (внешним файлом) Одноголосый, закадровый [А. Гаврилов]
Аудио 8: Русский, AC3, 384 Кбит/с, 48000Hz, 2 ch (внешним файлом) Одноголосый, закадровый [С. Рябов]
Аудио 9: Русский, AC3, 192 Кбит/с, 48000Hz, 2 ch (внешним файлом) Одноголосый, закадровый [А.Толстобров]
Субтитры 1 (STR): Русские [Panina] (в составе контейнера)
Субтитры 2 (STR): Русские [anime4ok] (в составе контейнера)
Субтитры 3 (ASS): Английские (в составе контейнера)-
-

MediaInfo

General
Unique ID : 238495396552301932353172223439375289390 (0xB36C8AE6A50A5B66AE44D4B21A59CC2E)
Complete name : E:/Torrent_2/Laputa. The Castle in the Sky [BDRip .10bit. 1080p, RUS ENG JAP+SUB]/Laputa. The Castle in the Sky [BDRip .10bit. 1080p, RUS ENG JAP+SUB].mkv
Format : Matroska
File size : 3.68 GiB
Duration : 2h 4mn
Overall bit rate : 4 232 Kbps
Encoded date : UTC 2014-03-16 08:23:11
Writing application : mkvmerge v5.5.0 ('Healer') built on Apr 6 2012 21:43:24
Writing library : libebml v1.2.3 + libmatroska v1.3.0
Cover : Yes / Yes
Video #1
ID : 1
Format : AVC
Format/Info : Advanced Video Codec
Format profile : High 10@L5.1
Format settings, CABAC : Yes
Format settings, ReFrames : 6 frames
Format settings, GOP : N=15
Codec ID : V_MPEG4/ISO/AVC
Duration : 2h 4mn
Width : 1 920 pixels
Height : 1 036 pixels
Display aspect ratio : 1.853
Frame rate : 23.976 fps
Color space : YUV
Chroma subsampling : 4:2:0
Bit depth : 10 bits
Scan type : Progressive
Writing library : x264 core 132 r2309+704+40 1360ac3 tMod [10-bit@all X86]
Encoding settings : cabac=1 / ref=6 / deblock=1:-1:-1 / analyse=0x3:0x133 / me=umh / subme=10 / psy=1 / fade_compensate=0.40 / psy_rd=0.75:0.00 / mixed_ref=1 / me_range=32 / chroma_me=1 / trellis=2 / 8x8dct=1 / cqm=0 / deadzone=21,11 / fast_pskip=0 / chroma_qp_offset=-2 / threads=12 / lookahead_threads=1 / sliced_threads=0 / nr=0 / decimate=0 / interlaced=0 / bluray_compat=0 / constrained_intra=0 / fgo=4 / bframes=8 / b_pyramid=2 / b_adapt=1 / b_bias=0 / direct=3 / weightb=1 / open_gop=0 / weightp=2 / keyint=250 / keyint_min=23 / scenecut=40 / intra_refresh=0 / rc_lookahead=40 / rc=crf / mbtree=1 / crf=20.0000 / qcomp=0.70 / qpmin=0 / qpmax=81 / qpstep=4 / ip_ratio=1.40 / aq=3:0.60 / aq-sensitivity=10.00 / aq-factor=1.00:1.00:1.00 / aq2=0 / aq3=0
Language : English
Color primaries : BT.709-5, BT.1361, IEC 61966-2-4, SMPTE RP177
Transfer characteristics : BT.709-5, BT.1361
Matrix coefficients : BT.709-5, BT.1361, IEC 61966-2-4 709, SMPTE RP177
Audio #2
ID : 2
Format : AC-3
Format/Info : Audio Coding 3
Mode extension : CM (complete main)
Codec ID : A_AC3
Duration : 2h 4mn
Bit rate mode : Constant
Bit rate : 192 Kbps
Channel(s) : 2 channels
Channel positions : Front: L R
Sampling rate : 48.0 KHz
Bit depth : 16 bits
Compression mode : Lossy
Stream size : 171 MiB (5%)
Title : DUB_Ruscico
Language : Russian
Audio #3
ID : 3
Format : AC-3
Format/Info : Audio Coding 3
Mode extension : CM (complete main)
Codec ID : A_AC3
Duration : 2h 4mn
Bit rate mode : Constant
Bit rate : 640 Kbps
Channel(s) : 6 channels
Channel positions : Front: L C R, Side: L R, LFE
Sampling rate : 48.0 KHz
Bit depth : 16 bits
Compression mode : Lossy
Stream size : 570 MiB (15%)
Title : Dub
Language : English
Audio #4
ID : 4
Format : FLAC
Format/Info : Free Lossless Audio Codec
Codec ID : A_FLAC
Duration : 2h 4mn
Bit rate mode : Variable
Channel(s) : 2 channels
Sampling rate : 48.0 KHz
Bit depth : 16 bits
Title : Original
Writing library : libFLAC 1.2.0 (UTC 2007-07-15)
Language : Japanese
Text #5
ID : 5
Format : UTF-8
Codec ID : S_TEXT/UTF8
Codec ID/Info : UTF-8 Plain Text
Title : Panina
Language : Russian
Text #6
ID : 6
Format : UTF-8
Codec ID : S_TEXT/UTF8
Codec ID/Info : UTF-8 Plain Text
Title : anime4ok
Language : Russian
Text #7
ID : 7
Format : ASS
Codec ID : S_TEXT/ASS
Codec ID/Info : Advanced Sub Station Alpha
Compression mode : Lossless
Language : English

Отличия от других раздач

mazillla12 - http://rutracker.org/forum/viewtopic.php?t=3366273 - меньший размер при сохранение качества
Сравнения скриншотов: первый кадр, второй кадр, третий кадр
nevermnd_2k - http://rutracker.org/forum/viewtopic.php?t=3340236 - меньший размер при сохранение качества
Сравнения скриншотов: первый кадр, второй кадр, третий кадр
Talian70 - http://rutracker.org/forum/viewtopic.php?t=3366369 - тот BDRemux, мой BDRip
Beonikol - http://rutracker.org/forum/viewtopic.php?t=3365959 - тот BDRip 720p, мой BDRip 1080p
burnin-snikers - http://rutracker.org/forum/viewtopic.php?t=3690943 - тот Blu-ray, мой BDRip

_________________
Показать сообщения:    

Текущее время: Сегодня 11:58

Часовой пояс: GMT



Вы не можете начинать темы
Вы не можете отвечать на сообщения
Вы не можете редактировать свои сообщения
Вы не можете удалять свои сообщения
Вы не можете голосовать в опросах
Вы не можете прикреплять файлы к сообщениям
Вы не можете скачивать файлы
Наши партнеры: интернет магазин Ивановского трикотажа textilla.ru