Ивановский Торрент трекер
Яндекс.Погода
 

[Цитировать]
HUNTER

Небесный верблюд
Страна: Россия
Жанр: детский, семейный
Год выпуска: 2015
Продолжительность: 01:26:27
Перевод: Не требуется
Cубтитры: нет
Оригинальная аудиодорожка: русский
Режиссер: Юрий Фетинг
В ролях: Виктор Сухоруков, Цеден Конаев, Михаил Гасанов, Пётр Новиков, Ирина Хургунова, Данзан Бадрашкиев, Батр Манджиев, Баира Манджиева, Виталий Махов
Описание: Калмыки говорят, что облако в виде верблюда приносит удачу. Под таким облаком родился белый верблюжонок Алтынка. На съемках фильма случайно гибнет белый верблюжонок. Срочно нужен дублер. Киноадминистратор приезжает на дальнюю степную стоянку бедного чабана Доржи. Алтынка продан. Верблюдица-мать бежит в степь на поиски своего сына. 12-летний Баир — сын Доржи садится на старый папин мотоцикл и отправляется в степь на поиски верблюдицы.
Сэмпл: http://multi-up.com/1115767

Тип релиза: HDTV 1080i
Контейнер: TS
Видео: AVC/H.264, PAL, 1920х1080 (16:9), 25 fps, 6913 Кбит/сек
Аудио 1: русский, MP2, 48000 Hz, 192 Кбит/сек, 2 ch
Аудио 2: русский, АС3, 48000 Hz, 448 Кбит/сек, 2 ch

MediaInfo

Общее
Идентификатор : 1 (0x1)
Полное имя : C:\Users\User\Desktop\Небесный верблюд.ts
Формат : MPEG-TS
Размер файла : 4,80 Гбайт
Продолжительность : 1 ч. 26 м.
Режим общего битрейта : Переменный
Общий поток : 7953 Кбит/сек
Видео
Идентификатор : 3551 (0xDDF)
Идентификатор меню : 1 (0x1)
Формат : AVC
Формат/Информация : Advanced Video Codec
Профиль формата : Main@L4.0
Параметр CABAC формата : Да
Параметр ReFrames формата : 4 кадра
Идентификатор кодека : 27
Продолжительность : 1 ч. 26 м.
Битрейт : 6913 Кбит/сек
Ширина : 1920 пикселей
Высота : 1080 пикселей
Соотношение сторон : 16:9
Частота кадров : 25,000 кадров/сек
Цветовое пространство : YUV
Субдискретизация насыщенности : 4:2:0
Битовая глубина : 8 бит
Тип развёртки : Чересстрочная
Порядок развёртки : Верхнее поле первое
Бит/(Пиксели*Кадры) : 0.133
Размер потока : 4,18 Гбайт (87%)
Основные цвета : BT.709
Характеристики трансфера : BT.709
Коэффициенты матрицы : BT.709
colour_range : Limited
Аудио #1
Идентификатор : 3552 (0xDE0)
Идентификатор меню : 1 (0x1)
Формат : MPEG Audio
Версия формата : Version 1
Профиль формата : Layer 2
Идентификатор кодека : 3
Продолжительность : 1 ч. 26 м.
Вид битрейта : Постоянный
Битрейт : 192 Кбит/сек
Каналы : 2 канала
Частота : 48,0 КГц
Метод сжатия : С потерями
Размер потока : 119 Мбайт (2%)
Язык : Russian
Аудио #2
Идентификатор : 3553 (0xDE1)
Идентификатор меню : 1 (0x1)
Формат : AC-3
Формат/Информация : Audio Coding 3
Расширение режима : CM (complete main)
Параметр Endianness формата : Big
Идентификатор кодека : 6
Продолжительность : 1 ч. 26 м.
Вид битрейта : Постоянный
Битрейт : 448 Кбит/сек
Каналы : 6 каналов
Расположение каналов : Front: L C R, Side: L R, LFE
Частота : 48,0 КГц
Битовая глубина : 16 бит
Метод сжатия : С потерями
Размер потока : 277 Мбайт (6%)
Язык : Russian

Скриншоты меню

Скриншоты

Показать сообщения:    

Текущее время: 23-Окт 12:27

Часовой пояс: UTC - 1


Вы не можете начинать темы
Вы не можете отвечать на сообщения
Вы не можете редактировать свои сообщения
Вы не можете удалять свои сообщения
Вы не можете голосовать в опросах
Вы не можете прикреплять файлы к сообщениям
Вы не можете скачивать файлы

!ВНИМАНИЕ!
Сайт не предоставляет электронные версии произведений, а занимается лишь коллекционированием и каталогизацией ссылок, присылаемых и публикуемых на форуме нашими читателями. Если вы являетесь правообладателем какого-либо представленного материала и не желаете, чтобы ссылка на него находилась в нашем каталоге, свяжитесь с нами, и мы незамедлительно удалим ее. Файлы для обмена на трекере предоставлены пользователями сайта, и администрация не несет ответственности за их содержание. Просьба не заливать файлы, защищенные авторскими правами, а также файлы нелегального содержания!