Ивановский Торрент трекер
Яндекс.Погода
 

[Цитировать]
HUNTER

Небеса могут подождать / Heaven Can Wait
КЛАССИКА МИРОВОГО КИНО
Страна: США
Студия: Twentieth Century Fox Film Corporation
Жанр: фэнтези, драма, мелодрама, комедия
Год выпуска: 1943
Продолжительность: 01:52:23
Перевод : Авторский (одноголосый закадровый) ГРИГОРИЙ ЛИБЕРГАЛ
Cубтитры: английские
Оригинальная аудиодорожка: английский
Режиссер: Эрнст Любич / Ernst Lubitsch/
В ролях: Чарлз Коберн /Charles Coburn/, Спринг Байингтон /Spring Byington/, Лэйрд Крегар /Laird Cregar/, Марджори Мэйн /Marjorie Main/, Луис Калхерн /Louis Calhern/, Джин Тирни /Gene Tierney/, Юджин Поллетт /Eugene Pallette/, Сайни Хассо /Signe Hasso/, Эллин Джослин /Allyn Joslyn/, Дон Амиче /Don Ameche/
Описание: Очаровательная комедия с искусно вплетенной сатирой, загримированной под легкую насмешливость, поставлена по венгерской пьесе "Дни рождения" ("Birthdays") Ладислауса Бус-Фекете с некоторыми добавлениями от Сэмсона Рэфэлсона. Дон Амиче в роли невинного Казановы, показанного с младенчества и до самой смерти (в возрасте 70 лет). ...Скончавшийся Амиче, мертвый, он стоит перед Дьяволом (Крегар), требующим предъявить пропуск в Ад. Дьявол тщательно изучает самого поступившего в его владения, рассматривает всю жизнь Казановы...
К сожалению, Амиче не хватает обаяния, и он часто беспомощен в роли. А у Джин Тирни в роли Марты явно не получается волшебства, свойственного Любичу. Это первый цветной фильм режиссера. (Иванов М.)
--------------------------------------------------------------------------------
Оператор: Эдвард Кронягер /Edward Cronjager/
Сценарист: Сэмсон Рэфэлсон /Samson Raphaelson/
Продюсер: Эрнст Любич /Ernst Lubitsch/
Монтажер: Дороти Спенсер /Dorothy Spencer/
Композитор: Элфред Ньюмэн /Alfred Newman/
Художник: Лилэнд Фуллер /Leland Fuller/, Джеймс Басеви /James Basevi/
Костюмы: Рене Убер /Rene Hubert/
По произведению: Ладислаус Бус-Фекете /Ladislaus Bus-Fekete/
--------------------------------------------------

Награды

Награды:
Оскар, 1944год

Номинации (3):
* Лучший фильм
* Лучший режиссер (Эрнст Любич)
* Лучшая работа оператора (цветные фильмы)
--------------------------------------------------
КИНОПОИСК. RU
РЕЙТИНГ -7.120 оценки: 114
7,5 /10 from 5 478 users
--------------------------------------------------
Доп. информация: Видеоряд от protoyu,
Перевод Либергала - отсюда DVD5
--------------------------------------------------
СЭМПЛ
--------------------------------------------------
Тип релиза: WEB-DL 720p
Контейнер: MKV
Видео: 956x720; 23.976 fps; ~ 4 112 Kbps; 0.249 Bits/Pixel
Аудио 1: Russian - 48 kHz, AC3 Dolby Digital, 2/0 (L,R) ch, ~192 kbps - Григорий Либергал
Аудио 2: English - 48 kHz, AC3 Dolby Digital, 2/0 (L,R) ch, ~192 kbps - Original
Формат субтитров: English (*UTF-8)

MediaInfo

General
Complete name : F:\EXCLUZIVE=19\Небеса могут подождать[Heaven Can Wait][1943]\Heaven Can Wait[1943]\Heaven.Can.Wait.1943.720p.WEB-DL.mkv
Format : Matroska
File size : 3.60 GiB
Duration : 1h 52mn
Overall bit rate : 4 587 Kbps
Encoded date : UTC 2013-11-11 09:17:52
Writing application : mkvmerge v3.3.0 ('Language') built on Mar 24 2010 14:59:24
Writing library : libebml v0.8.0 + libmatroska v0.9.0
Video
ID : 1
Format : AVC
Format/Info : Advanced Video Codec
Format profile : Main@L3.1
Format settings, CABAC : No
Format settings, ReFrames : 2 frames
Muxing mode : Container profile=Unknown@3.1
Codec ID : V_MPEG4/ISO/AVC
Duration : 1h 52mn
Bit rate : 4 112 Kbps
Width : 956 pixels
Height : 720 pixels
Display aspect ratio : 4:3
Frame rate : 23.976 fps
Color space : YUV
Chroma subsampling : 4:2:0
Bit depth : 8 bits
Scan type : Progressive
Bits/(Pixel*Frame) : 0.249
Stream size : 3.23 GiB (90%)
Title : Heaven.Can.Wait.1943.
Language : English
Color primaries : BT.709-5, BT.1361, IEC 61966-2-4, SMPTE RP177
Transfer characteristics : BT.709-5, BT.1361
Matrix coefficients : BT.709-5, BT.1361, IEC 61966-2-4 709, SMPTE RP177
Audio #1
ID : 2
Format : AC-3
Format/Info : Audio Coding 3
Mode extension : CM (complete main)
Codec ID : A_AC3
Duration : 1h 52mn
Bit rate mode : Constant
Bit rate : 192 Kbps
Channel(s) : 2 channels
Channel positions : Front: L R
Sampling rate : 48.0 KHz
Stream size : 154 MiB (4%)
Title : AVO Либергал @ AC3 2ch 192 kbps
Language : Russian
Audio #2
ID : 3
Format : AC-3
Format/Info : Audio Coding 3
Mode extension : CM (complete main)
Codec ID : A_AC3
Duration : 1h 52mn
Bit rate mode : Constant
Bit rate : 192 Kbps
Channel(s) : 2 channels
Channel positions : Front: L R
Sampling rate : 48.0 KHz
Stream size : 154 MiB (4%)
Title : Original @ AC3 2ch 192 kbps
Language : English
Text
ID : 4
Format : UTF-8
Codec ID : S_TEXT/UTF8
Codec ID/Info : UTF-8 Plain Text
Title : (* UTF-8)
Language : English
Menu
00:00:00.000 : en:Chapter 01
00:01:10.000 : en:Chapter 02
00:04:15.000 : en:Chapter 03
00:06:31.000 : en:Chapter 04
00:16:23.000 : en:Chapter 05
00:23:01.000 : en:Chapter 06
00:31:58.000 : en:Chapter 07
00:49:04.000 : en:Chapter 08
00:55:05.000 : en:Chapter 09
01:01:11.000 : en:Chapter 10
01:07:04.000 : en:Chapter 11
01:09:47.000 : en:Chapter 12
01:15:54.000 : en:Chapter 13
01:23:07.000 : en:Chapter 14
01:29:57.000 : en:Chapter 15
01:31:16.000 : en:Chapter 16
01:36:53.000 : en:Chapter 17
01:43:53.000 : en:Chapter 18
01:47:14.000 : en:Chapter 19
01:49:35.000 : en:Chapter 20

Скриншоты

, ,
, ,
, ,
Мои раздачи фильмов в Авторском переводе
Показать сообщения:    

Текущее время: 26-Сен 04:44

Часовой пояс: UTC - 1


Вы не можете начинать темы
Вы не можете отвечать на сообщения
Вы не можете редактировать свои сообщения
Вы не можете удалять свои сообщения
Вы не можете голосовать в опросах
Вы не можете прикреплять файлы к сообщениям
Вы не можете скачивать файлы

!ВНИМАНИЕ!
Сайт не предоставляет электронные версии произведений, а занимается лишь коллекционированием и каталогизацией ссылок, присылаемых и публикуемых на форуме нашими читателями. Если вы являетесь правообладателем какого-либо представленного материала и не желаете, чтобы ссылка на него находилась в нашем каталоге, свяжитесь с нами, и мы незамедлительно удалим ее. Файлы для обмена на трекере предоставлены пользователями сайта, и администрация не несет ответственности за их содержание. Просьба не заливать файлы, защищенные авторскими правами, а также файлы нелегального содержания!