На Ривьере / On the Riviera (Уолтер Лэнг / Walter Lang) [1951 г., США, комедия, мюзикл, BDRip 720p] Original Eng + Sub (Rus, Eng) :: Ивановский Торрент трекер
Важное объявление!
У Нас Все раздачи мультитрекерные, при нуле пиров в релизах, можете смело вставать на закачку!
Статистика раздачи
Размер:     |    Зарегистрирован:     |    Скачан:     |   
Нет
 
     
 
 
Автор Сообщение

HUNTER

Стаж:
4 года 11 месяцев
Сообщений:
66066

Репутация: 101

[+] [-]
Вне форума [Профиль] [ЛС]

На Ривьере / On the Riviera-
Год выпуска: 1951
Страна: США
Жанр: комедия, мюзикл
Продолжительность: 01:29:45
Перевод: Субтитры
Оригинальная аудиодорожка: Английская
Cубтитры: Русские (kon272), английские (полные, для слабослышащих)-Режиссер: Уолтер Лэнг / Walter Lang
В ролях: Дэнни Кэй, Джин Тирни, Коринн Кальве, Марсель Далио, Жан Мюрат, Генри Летондаль, Клинтон Сандберг, Сиг Руман-Описание:
Джек Мартин (Дэнни Кей), и его подруга, француженка Колетт (Коринн Кальве) выступают в ночном клубе Ниццы "Лазурный берег". Когда в Ниццу, после кругосветного путешествия, возвращается знаменитый летчик Анри Дюран, они с удивлением обнаруживают, что Анри очень похож на Джека. Ему приходит в голову использовать свое сходство с Дюраном в новом шоу и обыграть в нем многочисленные любовные похождения бравого авиатора. Дюран посещает премьеру вместе со своей красавицей женой Лили (Джин Тирни), которая знакомится с Джеком. Вскоре события приобретают такой оборот, что актеру приходится сыграть роль Анри не только на сцене...- | IMDb | Сэмпл-Качество: BDRip 720p (DON)
Контейнер: MKV
Видео: x264, 988x720 (1.37:1), 23.976 fps, 7000 kbps
Аудио: Английский DTS 1.0, 48 kHz, 768 kbps
Формат субтитров: softsub (SRT)

MI

nfo
On the Riviera (1951)
Technical information
RUNTIME........: 1h 29mn
SIZE...........: 4.46 GiB
VIDEO CODEC....: x264 r2431, 2-Pass, L4.1, DXVA
BITRATE........: 7 000 Kbps
RESOLUTION.....: 988x720
FRAMERATE......: 23.976 fps
AUDIO..........: English AAC @ 109 kbps (q=0.65)
SUBTITLES......: English (srt)
CHAPTERS.......: Yes
SOURCE.........: On the Riviera 1951 1080p Blu-ray AVC DTS-HD MA 1.0 buchanan, Thanks
RELEASE DATE...: 9/21/2014
x264 iNFO
x264 [info]: profile High, level 4.1
x264 [info]: frame I:741 Avg QP:16.44 size:129124
x264 [info]: frame P:28374 Avg QP:19.05 size: 60323
x264 [info]: frame B:100010 Avg QP:19.88 size: 29051
x264 [info]: consecutive B-frames: 1.2% 2.2% 8.0% 26.7% 19.1% 39.4% 3.3%
encoded 129125 frames, 7.707 fps, 7000.40 kb/s, 4494.3 MB
General
Unique ID : 211251728866756640400974404320015287123 (0x9EED9A610369E06EBC4999DF625E0353)
Complete name : On the Riviera 1951 720p BluRay DTS 1.0 x264-DON.mkv
Format : Matroska
Format version : Version 2
File size : 4.87 GiB
Duration : 1h 29mn
Overall bit rate : 7 771 Kbps
Movie name : On the Riviera / На Ривьере (1951) – RuTracker
Encoded date : UTC 2014-12-06 14:47:57
Writing application : mkvmerge v7.0.0 ('Where We Going') 64bit built on Jun 9 2014 15:16:27
Writing library : libebml v1.3.0 + libmatroska v1.4.1
Attachements : cover.jpg
Video
ID : 1
Format : AVC
Format/Info : Advanced Video Codec
Format profile : High@L4.1
Format settings, CABAC : Yes
Format settings, ReFrames : 11 frames
Codec ID : V_MPEG4/ISO/AVC
Duration : 1h 29mn
Bit rate : 7 000 Kbps
Width : 988 pixels
Height : 720 pixels
Display aspect ratio : 1.372
Frame rate mode : Constant
Frame rate : 23.976 fps
Color space : YUV
Chroma subsampling : 4:2:0
Bit depth : 8 bits
Scan type : Progressive
Bits/(Pixel*Frame) : 0.410
Stream size : 4.29 GiB (88%)
Title : On the Riviera 1951 720p BluRay AAC 1.0 x264-DON
Writing library : x264 core 142 r2431+42 c69a006 tMod [8-bit@all X86_64]
Encoding settings : cabac=1 / ref=11 / deblock=1:-3:-3 / analyse=0x3:0x133 / me=umh / subme=11 / psy=1 / fade_compensate=0.00 / psy_rd=0.90:0.00 / mixed_ref=1 / me_range=32 / chroma_me=1 / trellis=2 / 8x8dct=1 / cqm=0 / deadzone=21,11 / fast_pskip=0 / chroma_qp_offset=-2 / threads=12 / lookahead_threads=1 / sliced_threads=0 / nr=0 / decimate=0 / interlaced=0 / bluray_compat=0 / constrained_intra=0 / fgo=0 / bframes=6 / b_pyramid=2 / b_adapt=2 / b_bias=0 / direct=3 / weightb=1 / open_gop=0 / weightp=2 / keyint=250 / keyint_min=24 / scenecut=40 / intra_refresh=0 / rc_lookahead=250 / rc=2pass / mbtree=0 / bitrate=7000 / ratetol=1.0 / qcomp=0.65 / qpmin=0:0:0 / qpmax=69:69:69 / qpstep=4 / cplxblur=20.0 / qblur=0.5 / vbv_maxrate=38000 / vbv_bufsize=30000 / nal_hrd=none / filler=0 / ip_ratio=1.40 / pb_ratio=1.15 / aq=4:0.60 / aq-sensitivity=10.00 / aq-factor=1.00:1.00:1.00 / aq2=0 / aq3=0
Language : English
Default : Yes
Forced : No
Audio
ID : 2
Format : DTS
Format/Info : Digital Theater Systems
Mode : 16
Format settings, Endianness : Big
Codec ID : A_DTS
Duration : 1h 29mn
Bit rate mode : Constant
Bit rate : 768 Kbps
Channel(s) : 1 channel
Channel positions : Front: C
Sampling rate : 48.0 KHz
Bit depth : 24 bits
Compression mode : Lossy
Stream size : 493 MiB (10%)
Language : English
Default : Yes
Forced : No
Text #1
ID : 3
Format : UTF-8
Codec ID : S_TEXT/UTF8
Codec ID/Info : UTF-8 Plain Text
Title : kon272
Language : Russian
Default : Yes
Forced : No
Text #2
ID : 4
Format : UTF-8
Codec ID : S_TEXT/UTF8
Codec ID/Info : UTF-8 Plain Text
Language : English
Default : No
Forced : No
Text #3
ID : 5
Format : UTF-8
Codec ID : S_TEXT/UTF8
Codec ID/Info : UTF-8 Plain Text
Title : SDH
Language : English
Default : No
Forced : No
Menu
00:00:00.000 : en:Chapter 01
00:04:46.202 : en:Chapter 02
00:09:55.428 : en:Chapter 03
00:13:28.641 : en:Chapter 04
00:19:45.642 : en:Chapter 05
00:24:19.082 : en:Chapter 06
00:27:48.333 : en:Chapter 07
00:32:00.418 : en:Chapter 08
00:40:00.523 : en:Chapter 09
00:43:33.068 : en:Chapter 10
00:44:59.780 : en:Chapter 11
00:47:52.160 : en:Chapter 12
00:52:06.248 : en:Chapter 13
00:56:47.737 : en:Chapter 14
01:01:12.335 : en:Chapter 15
01:05:51.072 : en:Chapter 16
01:12:04.194 : en:Chapter 17
01:15:01.830 : en:Chapter 18
01:21:17.163 : en:Chapter 19
01:26:35.982 : en:Chapter 20

_________________
Показать сообщения:    

Текущее время: Сегодня 18:58

Часовой пояс: GMT



Вы не можете начинать темы
Вы не можете отвечать на сообщения
Вы не можете редактировать свои сообщения
Вы не можете удалять свои сообщения
Вы не можете голосовать в опросах
Вы не можете прикреплять файлы к сообщениям
Вы не можете скачивать файлы