Важное объявление!
У Нас Все раздачи мультитрекерные, при нуле пиров в релизах, можете смело вставать на закачку!
 
Автор Сообщение

HUNTER

Стаж:
4 года 5 месяцев
Сообщений:
60857

Репутация: 101

[+] [-]
Вне форума [Профиль] [ЛС]

На гребне (Дрифт) / Drift«Два брата, одна мечта и никаких правил!»
Страна: Австралия
Жанр: драма, спорт
Год выпуска: 2012
премьера (РФ): 14 августа 2014, «Top Film Distribution»
Продолжительность: 01:48:42
Перевод: Профессиональный (многоголосый закадровый)
Cубтитры: отсутствуют
Режиссер: Бен Нотт / Ben Nott, Морган О’Нил / Morgan O'Neill
В ролях: Майлс Поллард, Завьер Сэмюэл, Сэм Уортингтон, Лесли-Энн Брандт, Робин Малкольм, Шон Кинэн, Стив Бастони, Аарон Гленнэйн, Бен Мортли, Дэвид Боуэрс
Описание: Действие фильма развивается в Австралии 70-х. Главные герои — братья Фишер. Энди и Джимми больше всего на свете любят оседлать волну побольше. Когда Фишеры были маленькими, их мать переехала из Сиднея в небольшой прибрежный городок Маргарет-Ривер, славящийся своим прибоем. На протяжении 12 лет мальчики развивали свои серферские способности в поисках идеальной волны. Но, несмотря на свой талант, свободолюбивый Джимми пытается помочь семье выбраться из долгов и начинает скатываться в криминальный мир. Тогда Энди принимает важное решение. Он увольняется с работы и помогает младшему брату начать бизнес по продаже снаряжения для серфинга.

Дополнительные материалы:
- отсутствуют
Меню: есть, на русском
Тип релиза: DVD5 R5
Контейнер: DVD-Video
Видео кодек: MPEG2
Аудио кодек: AC3
Видео: PAL 16:9 (720x576) VBR Auto Letterboxed ~ 5432 kbps avg
Аудио: Russian (Dolby AC3, 6 ch, 448 kbps)

DVDInfo

Title: Na.Grebne.2012.DVD.R5.NiP
Size: 4.23 Gb ( 4 432 626,00 KBytes ) - DVD-5
Enabled regions: 1, 2, 3, 4, 5, 6, 7, 8
VTS_01 :
Play Length: 01:48:42
Video: PAL 16:9 (720x576) VBR, Auto Letterboxed
Audio:
Russian (Dolby AC3, 6 ch)
VTS_02 :
Play Length: 00:00:08
Video: PAL 4:3 (720x576) VBR
VTS_03 :
Play Length: 00:00:04+00:00:04
Video: PAL 16:9 (720x576) VBR, Auto Letterboxed
VTS_04 :
Play Length: 00:00:12
Video: PAL 16:9 (720x576) VBR, Auto Letterboxed
Subtitles:
English

MediaInfo

Общее
Полное имя : S:\Na.Grebne.2012.DVD.R5.NiP\VIDEO_TS\VTS_01_4.VOB
Формат : MPEG-PS
Размер файла : 1024 Мбайт
Продолжительность : 23 м.
Режим общего битрейта : Переменный
Общий поток : 5999 Кбит/сек
Видео
Идентификатор : 224 (0xE0)
Формат : MPEG Video
Версия формата : Version 2
Профиль формата : Main@Main
Параметр BVOP формата : Да
Параметр матрицы формата : Выборочная
Параметр GOP формата : M=3, N=15
Продолжительность : 23 м.
Вид битрейта : Переменный
Битрейт : 5432 Кбит/сек
Максимальный битрейт : 8000 Кбит/сек
Ширина : 720 пикселей
Высота : 576 пикселей
Соотношение сторон : 16:9
Частота кадров : 25,000 кадров/сек
Стандарт вещания : PAL
Цветовое пространство : YUV
Субдискретизация насыщенности : 4:2:0
Битовая глубина : 8 бит
Тип развёртки : Чересстрочная
Порядок развёртки : Верхнее поле первое
Метод сжатия : С потерями
Бит/(Пиксели*Кадры) : 0.524
Временной код первого кадра : 01:17:49:05
Оригинал временного кода : Group of pictures header
Размер потока : 927 Мбайт (91%)
Аудио
Идентификатор : 189 (0xBD)-128 (0x80)
Формат : AC-3
Формат/Информация : Audio Coding 3
Расширение режима : CM (complete main)
Параметр Endianness формата : Big
Режим смешивания : DVD-Video
Продолжительность : 23 м.
Вид битрейта : Постоянный
Битрейт : 448 Кбит/сек
Каналы : 6 каналов
Расположение каналов : Front: L C R, Side: L R, LFE
Частота : 48,0 КГц
Битовая глубина : 16 бит
Метод сжатия : С потерями
Задержка видео : -512 мс.
Размер потока : 76,5 Мбайт (7%)
Меню

Скриншоты меню

Скриншоты


_________________
Показать сообщения:    

Текущее время: Сегодня 05:42

Часовой пояс: GMT



Вы не можете начинать темы
Вы не можете отвечать на сообщения
Вы не можете редактировать свои сообщения
Вы не можете удалять свои сообщения
Вы не можете голосовать в опросах
Вы не можете прикреплять файлы к сообщениям
Вы не можете скачивать файлы
Наши партнеры: интернет магазин Ивановского трикотажа textilla.ru