На гребне волны / Point Break (Эриксон Кор / Ericson Core) [2015, США, Германия, Китай, боевик, триллер, криминал, спорт, BDRip 720p] Dub + Sub Rus, Eng + Original Eng :: Ивановский Торрент трекер
Важное объявление!
У Нас Все раздачи мультитрекерные, при нуле пиров в релизах, можете смело вставать на закачку!
Статистика раздачи
Размер:     |    Зарегистрирован:     |    Скачан:     |   
Нет
 
     
 
 
Автор Сообщение

HUNTER

Стаж:
4 года 11 месяцев
Сообщений:
66077

Репутация: 101

[+] [-]
Вне форума [Профиль] [ЛС]

На гребне волны / Point Break
Страна: США, Германия, Китай
Студия: Alcon Entertainment
Жанр: Боевик, триллер, криминал, спорт
Год выпуска: 2015
Продолжительность: 01:53:50
Перевод: Профессиональный (дублированный)
Cубтитры: Rus, Eng
Оригинальная аудиодорожка: английский
Режиссер: Эриксон Кор / Ericson Core
В ролях: Люк Брейси, Эдгар Рамирес, Тереза Палмер, Макс Тириот, Рэй Уинстон, Тобиас Зантельман, Джеймс ЛеГрос, Делрой Линдо, Боджесси Кристофер, Клеменс Шик.
Описание: Джонни — молодой агент ФБР, специализирующийся на работе под прикрытием. Он не раз выходил из самых сложных ситуаций, всегда доделывая свою работу до конца. Его очередным заданием становится проникновение в банду воров. Однако эти люди не обычные грабители: их главным отличием от остальных является увлечение экстремальными видами спорта. Свои умения они используют при каждом новом ограблении, и стать частью их команды очень непросто. Чтобы войти в банду и остановить преступников, Джонни придется доказать, что он такой же как они, а для этого ему не раз предстоит рискнуть собственной жизнью…

Исходник: Point Break (2015) Blu-ray CEE 1080p AVC DD5.1
Тип релиза: BDRip 720p / Tonik
Контейнер: MKV
Видео: MPEG-4 AVC, 6908 Кбит/с, 1280x534, 23,976 fps
Аудио: Rus, AC3, 640 kb/s (6 ch), 48 kHz
Аудио 2: Eng, DTS, 1510 kb/s (6 ch), 48 kHz
Формат субтитров: softsub (SRT)

MediaInfo

x264 [info]: frame I:1555 Avg QP:15.49 size:148463
x264 [info]: frame P:41758 Avg QP:17.19 size: 62202
x264 [info]: frame B:120464 Avg QP:19.57 size: 26773
x264 [info]: consecutive B-frames: 5.0% 4.2% 13.7% 20.9% 18.6% 27.1% 4.9% 2.0% 1.5% 1.2% 0.9%
Format : Matroska
Format version : Version 4 / Version 2
File size : 7.35 GiB
Duration : 1h 53mn
Overall bit rate : 9 241 Kbps
Movie name : На гребне волны. (Tonik)
Encoded date : UTC 2016-03-12 16:13:44
Writing application : mkvmerge v7.1.0 ('Good Love') 64bit built on Jul 27 2014 13:06:55
Writing library : libebml v1.3.0 + libmatroska v1.4.1
DURATION : 01:37:13.286000000
NUMBER_OF_FRAMES : 922
NUMBER_OF_BYTES : 29000
_STATISTICS_WRITING_APP : mkvmerge v7.1.0 ('Good Love') 64bit built on Jul 27 2014 13:06:55
_STATISTICS_WRITING_DATE_UTC : 2016-03-12 16:13:44
_STATISTICS_TAGS : BPS DURATION NUMBER_OF_FRAMES NUMBER_OF_BYTES
Video
ID : 1
Format : AVC
Format/Info : Advanced Video Codec
Format profile : High@L4.1
Format settings, CABAC : Yes
Format settings, ReFrames : 12 frames
Codec ID : V_MPEG4/ISO/AVC
Duration : 1h 53mn
Bit rate : 6 908 Kbps
Width : 1 280 pixels
Height : 534 pixels
Display aspect ratio : 2.40:1
Frame rate mode : Constant
Frame rate : 23.976 fps
Color space : YUV
Chroma subsampling : 4:2:0
Bit depth : 8 bits
Scan type : Progressive
Bits/(Pixel*Frame) : 0.422
Stream size : 5.49 GiB (75%)
Title : Tonik
Writing library : x264 core 148 r2597 e86f3a1
Encoding settings : cabac=1 / ref=12 / deblock=1:-3:-3 / analyse=0x3:0x133 / me=umh / subme=11 / psy=1 / psy_rd=1.00:0.00 / mixed_ref=1 / me_range=32 / chroma_me=1 / trellis=2 / 8x8dct=1 / cqm=0 / deadzone=21,11 / fast_pskip=0 / chroma_qp_offset=-2 / threads=12 / lookahead_threads=3 / sliced_threads=0 / nr=0 / decimate=0 / interlaced=0 / bluray_compat=0 / constrained_intra=0 / bframes=10 / b_pyramid=2 / b_adapt=2 / b_bias=0 / direct=3 / weightb=1 / open_gop=0 / weightp=2 / keyint=250 / keyint_min=23 / scenecut=40 / intra_refresh=0 / rc=crf / mbtree=0 / crf=15.9 / qcomp=0.60 / qpmin=0 / qpmax=69 / qpstep=4 / ip_ratio=1.40 / pb_ratio=1.30 / aq=1:0.80
Language : English
Default : Yes
Forced : No
DURATION : 01:53:50.877000000
NUMBER_OF_FRAMES : 163777
NUMBER_OF_BYTES : 6053493761
_STATISTICS_WRITING_APP : mkvmerge v7.1.0 ('Good Love') 64bit built on Jul 27 2014 13:06:55
_STATISTICS_WRITING_DATE_UTC : 2016-03-12 16:13:44
_STATISTICS_TAGS : BPS DURATION NUMBER_OF_FRAMES NUMBER_OF_BYTES
Audio #1
ID : 2
Format : AC-3
Format/Info : Audio Coding 3
Mode extension : CM (complete main)
Format settings, Endianness : Big
Codec ID : A_AC3
Duration : 1h 53mn
Bit rate mode : Constant
Bit rate : 640 Kbps
Channel(s) : 6 channels
Channel positions : Front: L C R, Side: L R, LFE
Sampling rate : 48.0 KHz
Bit depth : 16 bits
Compression mode : Lossy
Stream size : 521 MiB (7%)
Language : Russian
Default : Yes
Forced : No
Audio #2
ID : 3
Format : DTS
Format/Info : Digital Theater Systems
Mode : 16
Format settings, Endianness : Big
Codec ID : A_DTS
Duration : 1h 53mn
Bit rate mode : Constant
Bit rate : 1 509 Kbps
Channel(s) : 6 channels
Channel positions : Front: L C R, Side: L R, LFE
Sampling rate : 48.0 KHz
Bit depth : 24 bits
Compression mode : Lossy
Stream size : 1.20 GiB (16%)
Language : English
Default : No
Forced : No
Text #1
ID : 4
Format : UTF-8
Codec ID : S_TEXT/UTF8
Codec ID/Info : UTF-8 Plain Text
Title : Forced
Language : Russian
Default : Yes
Forced : No
Text #2
ID : 5
Format : UTF-8
Codec ID : S_TEXT/UTF8
Codec ID/Info : UTF-8 Plain Text
Language : Russian
Default : No
Forced : No
Text #3
ID : 6
Format : UTF-8
Codec ID : S_TEXT/UTF8
Codec ID/Info : UTF-8 Plain Text
Language : English
Default : No
Forced : No
Menu
00:00:00.000 : :Chapter 01
00:10:11.819 : :Chapter 02
00:21:05.138 : :Chapter 03
00:29:20.925 : :Chapter 04
00:42:44.895 : :Chapter 05
00:50:05.794 : :Chapter 06
01:03:19.462 : :Chapter 07
01:12:43.942 : :Chapter 08
01:20:40.418 : :Chapter 09
01:27:14.520 : :Chapter 10
01:32:44.350 : :Chapter 11
01:39:02.603 : :Chapter 12
01:53:50.657 : :Chapter 13

Скриншоты


_________________
Показать сообщения:    

Текущее время: Сегодня 03:51

Часовой пояс: GMT



Вы не можете начинать темы
Вы не можете отвечать на сообщения
Вы не можете редактировать свои сообщения
Вы не можете удалять свои сообщения
Вы не можете голосовать в опросах
Вы не можете прикреплять файлы к сообщениям
Вы не можете скачивать файлы