Ивановский Торрент трекер
Яндекс.Погода
Статистика раздачи
Размер:  7.64 GB   |    Зарегистрирован:  2 года   |    Скачан:  0 раз

Полного источника не было: Никогда

 
     
 
 
 

[Цитировать]
HUNTER

На гребне волныPoint Break- Страна: США, Япония
Жанр: боевик, криминал
Год выпуска: 1991
Продолжительность: 01:57:03-Перевод: Профессиональный (многоголосый, закадровый) Киномания
Перевод: Профессиональный (двухголосый, закадровый) Гланц и Королёва
Перевод: Профессиональный (полное дублирование) Хлопушка
Перевод: Профессиональный (многоголосый, закадровый) ТВ3 / Itunes
Перевод: Профессиональный (многоголосый, закадровый) Россия / РТР
Перевод: Профессиональный (многоголосый, закадровый) ОРТ
Перевод: Профессиональный (двухголосый, закадровый) Премьер-видео
Перевод: Профессиональный (многоголосый, закадровый) Лазер-видео
Перевод: Одноголосый закадровый А. Матвеев
Перевод: Авторский (одноголосый закадровый) А. Гаврилов (ранний)
Перевод: Авторский (одноголосый закадровый) А. Гаврилов (поздний)
Перевод: Авторский (одноголосый закадровый) Ю. Живов
Перевод: Одноголосый закадровый А. Багичев
Перевод: Авторский (одноголосый закадровый) А. Дольский
Перевод украинский: Профессиональный (двухголосый, закадровый) 1+1
Перевод украинский: Профессиональный (многоголосый, закадровый) ICTV
Оригинальная дорожка: английский
Субтитры : русские (4 вида), английские
Режиссер: Кэтрин Бигелоу / Kathryn Bigelow
В ролях: Патрик Суэйзи (Bodhi), Киану Ривз (Johnny Utah), Гэри Бьюзи (Pappas), Лори Петти (Tyler), Джон К. МакГинли (Ben Harp), Джеймс ЛеГрос (Roach), Джон Филбин (Nathanial), Боджесси Кристофер (Grommet), Джулиан Рейес (Alvarez), Дэниэл Бир (Babbit), Крис Пидерсен (Bunker), Винсент Клин (Warchild)-Описание: Таинственная банда серфингистов, среди белого дня, совершает ограбления банков. Полиция и ФБР поражены профессиональностью и скоростью проведения преступлений.
Следствие ведет молодой и претенциозный агент ФБР, который, рискуя жизнью, внедряется в банду...-
MPAA: R - Лицам до 17 лет обязательно присутствие взрослого-Спасибо Mark20100, Liu Jian, серый75, Nekontroliruemij_devil, Doctor_Joker, Zuluzz, bora86bora, exsmo за помощь в создании релиза-Качество: WEB-DL 720p
Контейнер: MKV
Видео: 958x720@1277x720 (anamorphic) at 25 fps, MPEG-4 AVC ~3883 kbps avg
Аудио №1: русский 48 kHz, AC3, 3/2 (L,C,R,l,r) + LFE ch, ~448.00 kbps avg Киномания
Аудио №2: русский 48 kHz, AC3, 3/2 (L,C,R,l,r) + LFE ch, ~448.00 kbps avg Гланц и Королева
Аудио №3: русский 48 kHz, AC3 Dolby Digital, 2/0 (L,R) ch, ~192 kbps Дубляж
Аудио №4: русский 48 kHz, AC3 Dolby Digital, 2/0 (L,R) ch, ~192 kbps ТВ3 / Itunes
Аудио №5: русский 48 kHz, AC3 Dolby Digital, 2/0 (L,R) ch, ~192 kbps Россия / РТР
Аудио №6: русский 48 kHz, AC3 Dolby Digital, 2/0 (L,R) ch, ~224 kbps ОРТ
Аудио №7: русский 48 kHz, AC3 Dolby Digital, 2/0 (L,R) ch, ~256 kbps Премьер-видео
Аудио №8: русский 48 kHz, AC3 Dolby Digital, 2/0 (L,R) ch, ~224 kbps Лазер-видео
Аудио №9: русский 48 kHz, AC3, 3/2 (L,C,R,l,r) + LFE ch, ~448.00 kbps avg Матвеев
Аудио №10: русский 48 kHz, AC3, 3/2 (L,C,R,l,r) + LFE ch, ~448.00 kbps avg Гаврилов (ранний)
Аудио №11: русский 48 kHz, AC3, 3/2 (L,C,R,l,r) + LFE ch, ~448.00 kbps avg Гаврилов (поздний)
Аудио №12: русский 48 kHz, AC3, 3/2 (L,C,R,l,r) + LFE ch, ~448.00 kbps avg Живов
Аудио №13: русский 48 kHz, AC3, 3/2 (L,C,R,l,r) + LFE ch, ~448.00 kbps avg Багичев
Аудио №14: русский 48 kHz, AC3 Dolby Digital, 1/0 (C) ch, ~96.00 kbps avg Дольский
Аудио №15: украинский 48 kHz, AC3 Dolby Digital, 2/0 (L,R) ch, ~192 kbps 1+1
Аудио №16: украинский 48 kHz, AC3 Dolby Digital, 2/0 (L,R) ch, ~128 kbps ICTV
Аудио №17: английский 48 kHz, AC3, 3/2 (L,C,R,l,r) + LFE ch, ~448.00 kbps avg
Субтитры №1: русский - А. Матвеев aka Doctor_Joker
Субтитры №2: русский - Киномания
Субтитры №3: русский - Alex Raynor
Субтитры №4: русский - Lisok, Newfog, Olinka
Субтитры №5: английский
Навигация по главам: есть-СЭМПЛ - https://yadi.sk/i/9G45ley7kSnFH-

Скриншоты

Скриншоты сравнения

Blu Ray vs WEB-DL (у WEB-DL кадр больше со всех сторон)




MediaInfo

General
Unique ID : 173663772000760521849952418055515112799 (0x82A66D0627626CCAB853594212E9855F)
Complete name : E:\HD\Point.Break.1991.720p.WEB-DL.14xRus.2xUkr.Eng_RUTRACKER.mkv
Format : Matroska
Format version : Version 4 / Version 2
File size : 7.64 GiB
Duration : 1h 57mn
Overall bit rate : 9 349 Kbps
Movie name : Point Break (1991) WEB-DL 720p for RUTRACKER.ORG
Encoded date : UTC 2015-11-13 22:09:22
Writing application : mkvmerge v8.1.0 ('Psychedelic Postcard') 64bit
Writing library : libebml v1.3.1 + libmatroska v1.4.2
DURATION : 01:52:36.157000000
NUMBER_OF_FRAMES : 1279
NUMBER_OF_BYTES : 70074
_STATISTICS_WRITING_APP : mkvmerge v8.1.0 ('Psychedelic Postcard') 64bit
_STATISTICS_WRITING_DATE_UTC : 2015-11-13 22:09:22
_STATISTICS_TAGS : BPS DURATION NUMBER_OF_FRAMES NUMBER_OF_BYTES
Video
ID : 1
Format : AVC
Format/Info : Advanced Video Codec
Format profile : Main@L3.1
Format settings, CABAC : No
Format settings, ReFrames : 2 frames
Codec ID : V_MPEG4/ISO/AVC
Duration : 1h 57mn
Bit rate : 3 883 Kbps
Width : 958 pixels
Height : 720 pixels
Display aspect ratio : 16:9
Frame rate mode : Constant
Frame rate : 25.000 fps
Color space : YUV
Chroma subsampling : 4:2:0
Bit depth : 8 bits
Scan type : Progressive
Bits/(Pixel*Frame) : 0.225
Stream size : 3.18 GiB (42%)
Language : English
Default : Yes
Forced : No
Color range : Limited
Color primaries : BT.709
Transfer characteristics : BT.709
Matrix coefficients : BT.709
Audio #1
ID : 2
Format : AC-3
Format/Info : Audio Coding 3
Mode extension : CM (complete main)
Format settings, Endianness : Big
Codec ID : A_AC3
Duration : 1h 57mn
Bit rate mode : Constant
Bit rate : 448 Kbps
Channel(s) : 6 channels
Channel positions : Front: L C R, Side: L R, LFE
Sampling rate : 48.0 KHz
Compression mode : Lossy
Stream size : 375 MiB (5%)
Title : Киномания
Language : Russian
Default : Yes
Forced : No
Audio #2
ID : 3
Format : AC-3
Format/Info : Audio Coding 3
Mode extension : CM (complete main)
Format settings, Endianness : Big
Codec ID : A_AC3
Duration : 1h 57mn
Bit rate mode : Constant
Bit rate : 448 Kbps
Channel(s) : 6 channels
Channel positions : Front: L C R, Side: L R, LFE
Sampling rate : 48.0 KHz
Compression mode : Lossy
Stream size : 375 MiB (5%)
Title : Гланц и Королёва
Language : Russian
Default : No
Forced : No
Audio #3
ID : 4
Format : AC-3
Format/Info : Audio Coding 3
Mode extension : CM (complete main)
Format settings, Endianness : Big
Codec ID : A_AC3
Duration : 1h 57mn
Bit rate mode : Constant
Bit rate : 192 Kbps
Channel(s) : 2 channels
Channel positions : Front: L R
Sampling rate : 48.0 KHz
Compression mode : Lossy
Stream size : 161 MiB (2%)
Title : Дубляж
Language : Russian
Default : No
Forced : No
Audio #4
ID : 5
Format : AC-3
Format/Info : Audio Coding 3
Mode extension : CM (complete main)
Format settings, Endianness : Big
Codec ID : A_AC3
Duration : 1h 57mn
Bit rate mode : Constant
Bit rate : 192 Kbps
Channel(s) : 2 channels
Channel positions : Front: L R
Sampling rate : 48.0 KHz
Compression mode : Lossy
Stream size : 161 MiB (2%)
Title : ТВ3 / Itunes
Language : Russian
Default : No
Forced : No
Audio #5
ID : 6
Format : AC-3
Format/Info : Audio Coding 3
Mode extension : CM (complete main)
Format settings, Endianness : Big
Codec ID : A_AC3
Duration : 1h 57mn
Bit rate mode : Constant
Bit rate : 192 Kbps
Channel(s) : 2 channels
Channel positions : Front: L R
Sampling rate : 48.0 KHz
Compression mode : Lossy
Stream size : 161 MiB (2%)
Title : Россия / РТР
Language : Russian
Default : No
Forced : No
Audio #6
ID : 7
Format : AC-3
Format/Info : Audio Coding 3
Mode extension : CM (complete main)
Format settings, Endianness : Big
Codec ID : A_AC3
Duration : 1h 57mn
Bit rate mode : Constant
Bit rate : 224 Kbps
Channel(s) : 2 channels
Channel positions : Front: L R
Sampling rate : 48.0 KHz
Compression mode : Lossy
Stream size : 188 MiB (2%)
Title : ОРТ
Language : Russian
Default : No
Forced : No
Audio #7
ID : 8
Format : AC-3
Format/Info : Audio Coding 3
Mode extension : CM (complete main)
Format settings, Endianness : Big
Codec ID : A_AC3
Duration : 1h 57mn
Bit rate mode : Constant
Bit rate : 256 Kbps
Channel(s) : 2 channels
Channel positions : Front: L R
Sampling rate : 48.0 KHz
Compression mode : Lossy
Stream size : 214 MiB (3%)
Title : Премьер Видео Фильм
Language : Russian
Default : No
Forced : No
Audio #8
ID : 9
Format : AC-3
Format/Info : Audio Coding 3
Mode extension : CM (complete main)
Format settings, Endianness : Big
Codec ID : A_AC3
Duration : 1h 57mn
Bit rate mode : Constant
Bit rate : 224 Kbps
Channel(s) : 2 channels
Channel positions : Front: L R
Sampling rate : 48.0 KHz
Compression mode : Lossy
Stream size : 188 MiB (2%)
Title : Лазер Видео
Language : Russian
Default : No
Forced : No
Audio #9
ID : 10
Format : AC-3
Format/Info : Audio Coding 3
Mode extension : CM (complete main)
Format settings, Endianness : Big
Codec ID : A_AC3
Duration : 1h 57mn
Bit rate mode : Constant
Bit rate : 448 Kbps
Channel(s) : 6 channels
Channel positions : Front: L C R, Side: L R, LFE
Sampling rate : 48.0 KHz
Compression mode : Lossy
Stream size : 375 MiB (5%)
Title : Матвеев (Doctor_Joker)
Language : Russian
Default : No
Forced : No
Audio #10
ID : 11
Format : AC-3
Format/Info : Audio Coding 3
Mode extension : CM (complete main)
Format settings, Endianness : Big
Codec ID : A_AC3
Duration : 1h 57mn
Bit rate mode : Constant
Bit rate : 448 Kbps
Channel(s) : 6 channels
Channel positions : Front: L C R, Side: L R, LFE
Sampling rate : 48.0 KHz
Compression mode : Lossy
Stream size : 375 MiB (5%)
Title : Гаврилов (ранний)
Language : Russian
Default : No
Forced : No
Audio #11
ID : 12
Format : AC-3
Format/Info : Audio Coding 3
Mode extension : CM (complete main)
Format settings, Endianness : Big
Codec ID : A_AC3
Duration : 1h 57mn
Bit rate mode : Constant
Bit rate : 448 Kbps
Channel(s) : 6 channels
Channel positions : Front: L C R, Side: L R, LFE
Sampling rate : 48.0 KHz
Compression mode : Lossy
Stream size : 375 MiB (5%)
Title : Гаврилов (поздний)
Language : Russian
Default : No
Forced : No
Audio #12
ID : 13
Format : AC-3
Format/Info : Audio Coding 3
Mode extension : CM (complete main)
Format settings, Endianness : Big
Codec ID : A_AC3
Duration : 1h 57mn
Bit rate mode : Constant
Bit rate : 448 Kbps
Channel(s) : 6 channels
Channel positions : Front: L C R, Side: L R, LFE
Sampling rate : 48.0 KHz
Compression mode : Lossy
Stream size : 375 MiB (5%)
Title : Живов
Language : Russian
Default : No
Forced : No
Audio #13
ID : 14
Format : AC-3
Format/Info : Audio Coding 3
Mode extension : CM (complete main)
Format settings, Endianness : Big
Codec ID : A_AC3
Duration : 1h 57mn
Bit rate mode : Constant
Bit rate : 448 Kbps
Channel(s) : 6 channels
Channel positions : Front: L C R, Side: L R, LFE
Sampling rate : 48.0 KHz
Compression mode : Lossy
Stream size : 375 MiB (5%)
Title : Багичев
Language : Russian
Default : No
Forced : No
Audio #14
ID : 15
Format : AC-3
Format/Info : Audio Coding 3
Mode extension : CM (complete main)
Format settings, Endianness : Big
Codec ID : A_AC3
Duration : 1h 57mn
Bit rate mode : Constant
Bit rate : 96.0 Kbps
Channel(s) : 1 channel
Channel positions : Front: C
Sampling rate : 48.0 KHz
Compression mode : Lossy
Stream size : 80.4 MiB (1%)
Title : Дольский
Language : Russian
Default : No
Forced : No
Audio #15
ID : 16
Format : AC-3
Format/Info : Audio Coding 3
Mode extension : CM (complete main)
Format settings, Endianness : Big
Codec ID : A_AC3
Duration : 1h 57mn
Bit rate mode : Constant
Bit rate : 192 Kbps
Channel(s) : 2 channels
Channel positions : Front: L R
Sampling rate : 48.0 KHz
Compression mode : Lossy
Stream size : 161 MiB (2%)
Title : 1+1
Language : Ukrainian
Default : No
Forced : No
Audio #16
ID : 17
Format : AC-3
Format/Info : Audio Coding 3
Mode extension : CM (complete main)
Format settings, Endianness : Big
Codec ID : A_AC3
Duration : 1h 57mn
Bit rate mode : Constant
Bit rate : 128 Kbps
Channel(s) : 2 channels
Channel positions : Front: L R
Sampling rate : 48.0 KHz
Compression mode : Lossy
Stream size : 107 MiB (1%)
Title : ICTV
Language : Ukrainian
Default : No
Forced : No
Audio #17
ID : 18
Format : AC-3
Format/Info : Audio Coding 3
Mode extension : CM (complete main)
Format settings, Endianness : Big
Codec ID : A_AC3
Duration : 1h 57mn
Bit rate mode : Constant
Bit rate : 448 Kbps
Channel(s) : 6 channels
Channel positions : Front: L C R, Side: L R, LFE
Sampling rate : 48.0 KHz
Compression mode : Lossy
Stream size : 375 MiB (5%)
Title : Оригинал
Language : English
Default : No
Forced : No
Text #1
ID : 19
Format : UTF-8
Codec ID : S_TEXT/UTF8
Codec ID/Info : UTF-8 Plain Text
Title : Матвеев (Doctor_Joker)
Language : Russian
Default : No
Forced : No
Text #2
ID : 20
Format : UTF-8
Codec ID : S_TEXT/UTF8
Codec ID/Info : UTF-8 Plain Text
Title : Киномания
Language : Russian
Default : No
Forced : No
Text #3
ID : 21
Format : UTF-8
Codec ID : S_TEXT/UTF8
Codec ID/Info : UTF-8 Plain Text
Title : Alex Raynor
Language : Russian
Default : No
Forced : No
Text #4
ID : 22
Format : UTF-8
Codec ID : S_TEXT/UTF8
Codec ID/Info : UTF-8 Plain Text
Title : Lisok, Newfog, Olinka
Language : Russian
Default : No
Forced : No
Text #5
ID : 23
Format : UTF-8
Codec ID : S_TEXT/UTF8
Codec ID/Info : UTF-8 Plain Text
Language : English
Default : No
Forced : No
Menu
00:00:00.000 : en:00:00:00.000
00:04:53.000 : en:00:04:53.000
00:11:14.000 : en:00:11:14.000
00:17:37.000 : en:00:17:37.000
00:22:06.000 : en:00:22:06.000
00:26:27.000 : en:00:26:27.000
00:32:03.000 : en:00:32:03.000
00:36:42.000 : en:00:36:42.000
00:41:46.000 : en:00:41:46.000
00:47:30.000 : en:00:47:30.000
00:54:27.000 : en:00:54:27.000
00:59:43.000 : en:00:59:43.000
01:07:35.000 : en:01:07:35.000
01:13:33.000 : en:01:13:33.000
01:20:17.000 : en:01:20:17.000
01:25:49.000 : en:01:25:49.000
01:30:57.000 : en:01:30:57.000
01:37:16.000 : en:01:37:16.000
01:45:45.000 : en:01:45:45.000
[iv-torrents.ru].t51839.torrent
Торрент: Зарегистрирован [ 2015-12-06 22:51 ] · 5C39BA1E3AD2EDA951A207C0FDD79D64925C8558

Скачать .torrent

Скачать

39 KB

Статус: проверено
Скачан: 0 раз
Размер: 7.64 GB
terms.php
Похожие темы


Показать сообщения:    

Текущее время: 16-Дек 17:02

Часовой пояс: UTC ± 0


Вы не можете начинать темы
Вы не можете отвечать на сообщения
Вы не можете редактировать свои сообщения
Вы не можете удалять свои сообщения
Вы не можете голосовать в опросах
Вы не можете прикреплять файлы к сообщениям
Вы можете скачивать файлы

!ВНИМАНИЕ!
Сайт не предоставляет электронные версии произведений, а занимается лишь коллекционированием и каталогизацией ссылок, присылаемых и публикуемых на форуме нашими читателями. Если вы являетесь правообладателем какого-либо представленного материала и не желаете, чтобы ссылка на него находилась в нашем каталоге, свяжитесь с нами, и мы незамедлительно удалим ее. Файлы для обмена на трекере предоставлены пользователями сайта, и администрация не несет ответственности за их содержание. Просьба не заливать файлы, защищенные авторскими правами, а также файлы нелегального содержания!