Ивановский Торрент трекер
Яндекс.Погода
 

[Цитировать]
neon10_10

На Грани / Man on a Ledge -Год выпуска: 2012
Страна: США
Жанр: триллер, криминал
Продолжительность: 1:42:16
Перевод: Профессиональный (полное дублирование)
Язык субтитров: Russian-Режиссер:
  • Асгер Лет
-В ролях:
  • Сэм Уортингтон, Элизабет Бэнкс, Джейми Белл, Энтони Маки, Генезис Родригез, Эд Харрис, Эдвард Бёрнс, Титус Уэлливер, Кира Седжвик, Мэнди Гонзалес
-Описание: Экс-полицейский, обвиняемый в преступлении, которого он якобы не совершал, собирается покончить жизнь самоубийством, сбросившись с крыши одного из отелей на Манхэттене. С ним в переговоры вступает психолог нью-йоркской полиции. Напряжение нарастает с каждой минутой, на площадь стягиваются наряды спецподразделений, толпа оглашается женскими криками. А в это время на месте происшествия, прямо под носом у полиции, совершается грандиозное ограбление века: неизвестные похищают уникальные бриллианты...- -Качество: Blu-ray
Формат: BDMV
Видео кодек: MPEG4
Аудио кодек: DTS HD MA
Видео: MPEG-4 AVC Video 30000 kbps 1080p / 24 fps / 16:9 / High Profile 4.1
Аудио:DTS-HD Master Audio Russian 2415 kbps 5.1 / 48 kHz / 2415 kbps / 16-bit (DTS Core: 5.1 / 48 kHz / 1509 kbps / 16-bit)
Dolby Digital Audio Russian 192 kbps 2.0 / 48 kHz / 192 kbps
Dolby TrueHD Audio Russian 1786 kbps 5.1 / 48 kHz / 1786 kbps / 16-bit (AC3 Embedded: 5.1 / 48 kHz / 640 kbps)
DTS-HD Master Audio English 2138 kbps 5.1 / 48 kHz / 2138 kbps / 16-bit (DTS Core: 5.1 / 48 kHz / 1509 kbps / 16-bit)
Релиз от: -

MediaInfo

General
ID : 0 (0x0)
Complete name : J:\фильмы\зарубежные в HD\NA_GRANI_BD_BLUEBIRD\BDMV\STREAM\00005.m2ts
Format : BDAV
Format/Info : Blu-ray Video
File size : 29.1 GiB
Duration : 1h 42mn
Overall bit rate mode : Variable
Overall bit rate : 40.7 Mbps
Maximum Overall bit rate : 48.0 Mbps
Video
ID : 4113 (0x1011)
Menu ID : 1 (0x1)
Format : AVC
Format/Info : Advanced Video Codec
Format profile : High@L4.1
Format settings, CABAC : Yes
Format settings, ReFrames : 4 frames
Codec ID : 27
Duration : 1h 42mn
Bit rate mode : Constant
Bit rate : 34.4 Mbps
Nominal bit rate : 30.0 Mbps
Width : 1 920 pixels
Height : 1 080 pixels
Display aspect ratio : 16:9
Frame rate : 24.000 fps
Standard : NTSC
Color space : YUV
Chroma subsampling : 4:2:0
Bit depth : 8 bits
Scan type : Progressive
Bits/(Pixel*Frame) : 0.690
Stream size : 24.5 GiB (84%)
Color primaries : BT.709-5, BT.1361, IEC 61966-2-4, SMPTE RP177
Transfer characteristics : BT.709-5, BT.1361
Matrix coefficients : BT.709-5, BT.1361, IEC 61966-2-4 709, SMPTE RP177
Audio #1
ID : 4352 (0x1100)
Menu ID : 1 (0x1)
Format : DTS
Format/Info : Digital Theater Systems
Format profile : MA / Core
Muxing mode : Stream extension
Codec ID : 134
Duration : 1h 42mn
Bit rate mode : Variable
Bit rate : 2 314 Kbps / 1 510 Kbps
Channel(s) : 6 channels
Channel positions : Front: L C R, Side: L R, LFE
Sampling rate : 48.0 KHz
Bit depth : 16 bits
Compression mode : Lossless / Lossy
Audio #2
ID : 4353 (0x1101)
Menu ID : 1 (0x1)
Format : AC-3
Format/Info : Audio Coding 3
Codec ID : 129
Duration : 1h 42mn
Bit rate : 192 Kbps
Channel(s) : 2 channels
Sampling rate : 48.0 KHz
Compression mode : Lossy
Stream size : 140 MiB (0%)
Audio #3
ID : 4354 (0x1102)
Menu ID : 1 (0x1)
Format : TrueHD
Muxing mode : Stream extension
Codec ID : 131
Duration : 7s 444ms
Bit rate mode : Variable
Bit rate : 640 Kbps
Maximum bit rate : 2 688 Kbps
Channel(s) : 6 channels
Channel positions : Front: L C R, Side: L R, LFE
Sampling rate : 48.0 KHz
Compression mode : Lossless
Stream size : 582 KiB (0%)
Audio #4
ID : 4355 (0x1103)
Menu ID : 1 (0x1)
Format : DTS
Format/Info : Digital Theater Systems
Format profile : MA / Core
Muxing mode : Stream extension
Codec ID : 134
Duration : 1h 42mn
Bit rate mode : Variable
Bit rate : 1 561 Kbps / 1 510 Kbps
Channel(s) : 6 channels
Channel positions : Front: L C R, Side: L R, LFE
Sampling rate : 48.0 KHz
Bit depth : 16 bits
Compression mode : Lossless / Lossy
Text
ID : 4608 (0x1200)
Menu ID : 1 (0x1)
Format : PGS
Codec ID : 144

Скриншоты

Показать сообщения:    

Текущее время: 23-Окт 06:42

Часовой пояс: UTC - 1


Вы не можете начинать темы
Вы не можете отвечать на сообщения
Вы не можете редактировать свои сообщения
Вы не можете удалять свои сообщения
Вы не можете голосовать в опросах
Вы не можете прикреплять файлы к сообщениям
Вы не можете скачивать файлы

!ВНИМАНИЕ!
Сайт не предоставляет электронные версии произведений, а занимается лишь коллекционированием и каталогизацией ссылок, присылаемых и публикуемых на форуме нашими читателями. Если вы являетесь правообладателем какого-либо представленного материала и не желаете, чтобы ссылка на него находилась в нашем каталоге, свяжитесь с нами, и мы незамедлительно удалим ее. Файлы для обмена на трекере предоставлены пользователями сайта, и администрация не несет ответственности за их содержание. Просьба не заливать файлы, защищенные авторскими правами, а также файлы нелегального содержания!