Важное объявление!
У Нас Все раздачи мультитрекерные, при нуле пиров в релизах, можете смело вставать на закачку!
 
Автор Сообщение

HUNTER

Стаж:
4 года 11 месяцев
Сообщений:
66019

Репутация: 101

[+] [-]
Вне форума [Профиль] [ЛС]

Наш Гагарин
Страна: СССР
Год выпуска: 1971
Продолжительность: 00:31:03
Перевод: Не требуется
Режиссер: Бессарабов И., Голованов Я.
Текст читает: Игорь Кваша
Описание: Фильм посвящен первому в мире летчику-космонавту Юрию Гагарину.
Качество: TVRip
Формат: AVI
Видео кодек: XviD
Аудио кодек: MP3
Видео: 704х576 25fps 700Kbps
Аудио: 24000Hz 80kbps stereo

Скриншоты

MediaInfo

GeneralComplete name : M:\SpaceDust\Our Gagarin.aviFormat : AVIFormat/Info : Audio Video InterleaveFile size : 179 MiBDuration : 30mn 9sOverall bit rate : 830 KbpsWriting application : Lavf52.0.0
VideoID : 0Format : xvidCodec ID : xvidDuration : 30mn 9sBit rate : 721 KbpsWidth : 704 pixelsHeight : 576 pixelsDisplay aspect ratio : 1.222Frame rate : 25.000 fpsStandard : PALBits/(Pixel*Frame) : 0.071Stream size : 155 MiB (87%)
AudioID : 1Format : MPEG AudioFormat version : Version 2Format profile : Layer 3Mode : Joint stereoMode extension : MS StereoCodec ID : 55Codec ID/Hint : MP3Duration : 30mn 9sBit rate mode : ConstantBit rate : 96.0 KbpsChannel(s) : 2 channelsSampling rate : 24.0 KHzCompression mode : LossyStream size : 20.7 MiB (12%)Alignment : Aligned on interleavesInterleave, duration : 24 ms (0.60 video frame)Interleave, preload duration : 24 ms
Список фильмов по советской космонавтике

_________________
Показать сообщения:    

Текущее время: Сегодня 01:34

Часовой пояс: GMT



Вы не можете начинать темы
Вы не можете отвечать на сообщения
Вы не можете редактировать свои сообщения
Вы не можете удалять свои сообщения
Вы не можете голосовать в опросах
Вы не можете прикреплять файлы к сообщениям
Вы не можете скачивать файлы