Ивановский Торрент трекер
Яндекс.Погода
 

[Цитировать]
HUNTER

Наш Гагарин
Страна: СССР
Год выпуска: 1971
Продолжительность: 00:31:03
Перевод: Не требуется
Режиссер: Бессарабов И., Голованов Я.
Текст читает: Игорь Кваша
Описание: Фильм посвящен первому в мире летчику-космонавту Юрию Гагарину.
Качество: TVRip
Формат: AVI
Видео кодек: XviD
Аудио кодек: MP3
Видео: 704х576 25fps 700Kbps
Аудио: 24000Hz 80kbps stereo

Скриншоты

MediaInfo

GeneralComplete name : M:\SpaceDust\Our Gagarin.aviFormat : AVIFormat/Info : Audio Video InterleaveFile size : 179 MiBDuration : 30mn 9sOverall bit rate : 830 KbpsWriting application : Lavf52.0.0
VideoID : 0Format : xvidCodec ID : xvidDuration : 30mn 9sBit rate : 721 KbpsWidth : 704 pixelsHeight : 576 pixelsDisplay aspect ratio : 1.222Frame rate : 25.000 fpsStandard : PALBits/(Pixel*Frame) : 0.071Stream size : 155 MiB (87%)
AudioID : 1Format : MPEG AudioFormat version : Version 2Format profile : Layer 3Mode : Joint stereoMode extension : MS StereoCodec ID : 55Codec ID/Hint : MP3Duration : 30mn 9sBit rate mode : ConstantBit rate : 96.0 KbpsChannel(s) : 2 channelsSampling rate : 24.0 KHzCompression mode : LossyStream size : 20.7 MiB (12%)Alignment : Aligned on interleavesInterleave, duration : 24 ms (0.60 video frame)Interleave, preload duration : 24 ms
Список фильмов по советской космонавтике
Показать сообщения:    

Текущее время: 20-Окт 13:32

Часовой пояс: UTC - 1


Вы не можете начинать темы
Вы не можете отвечать на сообщения
Вы не можете редактировать свои сообщения
Вы не можете удалять свои сообщения
Вы не можете голосовать в опросах
Вы не можете прикреплять файлы к сообщениям
Вы не можете скачивать файлы

!ВНИМАНИЕ!
Сайт не предоставляет электронные версии произведений, а занимается лишь коллекционированием и каталогизацией ссылок, присылаемых и публикуемых на форуме нашими читателями. Если вы являетесь правообладателем какого-либо представленного материала и не желаете, чтобы ссылка на него находилась в нашем каталоге, свяжитесь с нами, и мы незамедлительно удалим ее. Файлы для обмена на трекере предоставлены пользователями сайта, и администрация не несет ответственности за их содержание. Просьба не заливать файлы, защищенные авторскими правами, а также файлы нелегального содержания!