Важное объявление!
У Нас Все раздачи мультитрекерные, при нуле пиров в релизах, можете смело вставать на закачку!
 
Автор Сообщение

HUNTER

Стаж:
4 года 10 месяцев
Сообщений:
65557

Репутация: 101

[+] [-]
Вне форума [Профиль] [ЛС]

Наши дикие сердца / Дикие сердца / Our Wild Hearts
Страна: США
Жанр: семейный, вестерн
Год выпуска: 2013
Продолжительность: 01:25:29
Перевод: Профессиональный (многоголосый закадровый)
Cубтитры: нет
Режиссер: Рик Шродер / Rick Schroder
В ролях: Элуиз Деджориа, Вероника Данн, Мартин Коув, Анджела Линдвэлл, Крис Дж. Келли, Карл Мергенталер, Клифф Поттс, Камбри Шродер, Холден Шродер, Люк Шродер
Описание: Уиллоу, пытающаяся найти себя в жизни девочка-подросток, одержима идеей найти своего отца, которого она никогда не видела. Она бросает свою праздную жизнь в Малибу и отправляется в горы Сьерра-Невада, где она неожиданно заявляется к местному ковбою Джеку, не подозревающему, что у него оказывается есть дети. На ранчо Уиллоу находит общий язык с диким и неподдающимся мустангом по кличке Браво. В то время как Джек хочет обуздать и приручить великолепного скакуна, Уиллоу уверена, что Браво должен быть свободной лошадью. Станет ли дикий жеребец, который свёл взрослую дочь и потерянного отца вместе, причиной очередного разрыва?

Сэмпл: http://sendfile.su/1011408
Тип релиза: HDTV 1080i
Контейнер: TS
Видео: AVC/H.264, PAL, 1920x1080 (16:9), 8926 Кбит/сек, 25.000 fps
Аудио: русский, MP-2, 48000 Hz, 192 Кбит/сек, 2 ch

MediaInfo

Видео
Идентификатор : 224 (0xE0)
Идентификатор меню : 1 (0x1)
Формат : AVC
Формат/Информация : Advanced Video Codec
Профиль формата : High@L4.1
Параметр CABAC формата : Да
Параметр ReFrames формата : 3 кадра
Идентификатор кодека : 27
Продолжительность : 1 ч. 25 м.
Вид битрейта : Постоянный
Битрейт : 8926 Кбит/сек
Ширина : 1920 пикселей
Высота : 1080 пикселей
Соотношение сторон : 16:9
Частота кадров : 25,000 кадров/сек
Стандарт вещания : PAL
Цветовое пространство : YUV
Субдискретизация насыщенности : 4:2:0
Битовая глубина : 8 бит
Тип развёртки : Чересстрочная
Порядок развёртки : Верхнее поле первое
Бит/(Пиксели*Кадры) : 0.172
Размер потока : 5,23 Гбайт (93%)
Основные цвета : BT.709
Характеристики трансфера : BT.709
Коэффициенты матрицы : BT.709
Аудио
Идентификатор : 192 (0xC0)
Идентификатор меню : 1 (0x1)
Формат : MPEG Audio
Версия формата : Version 1
Профиль формата : Layer 2
Идентификатор кодека : 3
Продолжительность : 1 ч. 25 м.
Вид битрейта : Постоянный
Битрейт : 192 Кбит/сек
Каналы : 2 канала
Частота : 48,0 КГц
Метод сжатия : С потерями
Задержка видео : 16 мс.
Размер потока : 117 Мбайт (2%)
Язык : Russian

Скриншот с названием фильма

Скриншоты


_________________
Показать сообщения:    

Текущее время: Сегодня 16:37

Часовой пояс: GMT



Вы не можете начинать темы
Вы не можете отвечать на сообщения
Вы не можете редактировать свои сообщения
Вы не можете удалять свои сообщения
Вы не можете голосовать в опросах
Вы не можете прикреплять файлы к сообщениям
Вы не можете скачивать файлы