Важное объявление!
У Нас Все раздачи мультитрекерные, при нуле пиров в релизах, можете смело вставать на закачку!
 
Автор Сообщение

HUNTER

Стаж:
4 года 10 месяцев
Сообщений:
65548

Репутация: 101

[+] [-]
Вне форума [Профиль] [ЛС]

Научитесь рисовать любые сайты в Фотошопе с нуля!--

  • Год выпуска: 2014
  • Страна: Россия
  • Тематика: Дизайн сайта
  • Тип материала: Видеокурс
  • Продолжительность: 24:11:21
  • Язык: Русский
  • Автор: Максим Лобанов

    Независимо от их сложности, благодаря продуманной и четкой пошаговой схеме действий этого курса для начинающих, Вы с легкостью сможете создавать многостраничные дизайны сайтов с чистого листа до подготовки дизайна к верстке.
    В этом курсе уделяется особое внимание юзабилити, выполнению задачи сайта, современному интерфейсу, соблюдению всех этапов разработки дизайна под ключ, начиная с прототипа, заканчивая созданием технических страниц (со всеми ссылками, кнопками и типографикой).
    --
  • Качество: PCRec
  • Формат: MP4
  • Видео кодек: AVC
  • Аудио кодек: AAC
  • Видео: 1280х720, ~475 Kbps, 30.000 fps
  • Аудио: AAC, 147 Kbps, 2 ch, 44,1 KHz
--

Содержание

Какие сайты мы будем с Вами рисовать?
БЛОГ
1 главная + 7 внутренних страниц
ПОРТФОЛИО
1 главная + 5 внутренних страниц
МАГАЗИН
1 главная + 5 внутренних, страниц + адаптивная версия
Курс делится на 2 части
ЧАСТЬ 1. ВВЕДЕНИЕ. 4 УРОКА
В первой части Вы узнаете ВСЁ о современном веб-дизайне и его тенденциях, о нюансах, фишках и секретах веб-студий, а также о том, из каких этапов состоит работа профессионального веб-дизайнера.
ЧАСТЬ 2. ПРАКТИКА. 27 УРОКОВ
Во второй части я шаг за шагом показываю процесс создания дизайна 3-х различных сайтов с нуля до всех их страниц и подготовке к верстке, то есть показываю весь процесс работы веб-дизайнера.
Программа курса:
Вступление
Урок 1-1. Основы веб-дизайна
Тема 1. Пиксели
Тема 2. Виды изображений
Тема 3. Шрифты
Тема 4. Юзабилити
Тема 5. Черное и белое
Тема 6. Гармония и тренд
Тема 7. Разделение обязанностей
1-2. Подготовка к работе
Тема 1. Какими бывают сайты?
Тема 2. Структура сайта
Тема 3. Скетч сайта
Урок 1-3. Формат и цвет сайта
Тема 1. Формат сайта
Тема 2. Модульная сетка
Тема 3. Цветовая палитра сайта
Тема 4. Ссылки
Урок 1-4. Настройка Photoshop
Тема 1. Настройка Photoshop
Тема 2. Рабочее пространство
Тема 3. Установка плагинов
САЙТ 1. БЛОГ
Урок 2-1-1. Начало работы
Тема 1. Есть задача
Тема 2. Скетч и параметры страницы
Тема 3. Холст и сетка
Урок 2-1-2. Набросок
Тема 1. Размещение файлов
Тема 2. Шапка
Урок 2-1-3. Центральная часть
Тема 1. Анонс поста
Тема 2. Пагинация
Урок 2-1-4. Боковая колонка
Тема 1. Рубрики
Тема 2. Популярные записи
Тема 3. Метки
Тема 4. Последние комментарии
Урок 2-1-5. Календарь и футер
Тема 1. Календарь
Тема 2. Футер
Урок 2-1-6. Разукрашивание
Тема 1. Выбор цветовой палитры
Тема 2. Липкое меню
Тема 3. Шапка
Урок 2-1-7. Рисуем центральную часть
Тема 1. Анонс поста
Тема 2. Пагинация
Урок 2-1-8. Рисуем боковую колонку
Тема 1. Фон боковой колонки
Тема 2. Рубрики
Тема 3. Популярные записи
Тема 4. Метки
Тема 5. Последние комментарии
Урок 2-1-9. Рисуем календарь и футер
Тема 1. Календарь
Тема 2. Футер
Тема 3. Шлифовка дизайна
Урок 2-1-10. Внутренние страницы
Тема 1. Страница рубрики
Тема 2. Страница поиска
Тема 3. Страница контактов
Урок 2-1-11. Страница поста
Тема 1. Контент поста
Тема 2. Комментарии
Урок 2-1-12. Технические страницы
Тема 1. Страница 404
Урок 2-1-13. Типографика
Тема 1. Типографика
Тема 2. Подготовка макетов
Тема 3. Подведение итогов работы
САЙТ 2. ПОРТФОЛИО
Урок 2-2-1. Начало работы
Тема 1. Есть задача
Тема 2. Скетч и параметры страницы
Тема 3. Прототип
Урок 2-2-2. Основы веб-дизайна
Тема 1. Шапка
Тема 2. Центральная часть
Урок 2-2-3. Внутренние страницы
Тема 1. Галерея
Тема 2. Страница фотографии
Урок 2-2-4. Страница заказа
Тема 1. Комментарии
Тема 2. Форма заказа
Тема 3. Подведение итогов работы
САЙТ 3. ИНТЕРНЕТ-МАГАЗИН
Урок 2-3-1. Начало работы
Тема 1. Есть задача
Тема 2. Скетч и параметры страницы
Тема 3. Прототип
Урок 2-3-2. Витрина
Тема 1. Юзербар
Тема 2. Шапка
Урок 2-3-3. Боковая колонка
Тема 1. Фильтр товаров
Тема 2. Баннер
Урок 2-3-4. Контент витрины и футер
Тема 1. Контент витрины
Тема 2. Футер
Урок 2-3-5. Страница товара
Тема 1. Фотогалерея
Тема 2. Цена и описание товара
Урок 2-3-6. Корзина
Тема 1. Список товаров
Тема 2. Данные покупателя
Урок 2-3-7. Главная страница
Тема 1. Баннер-слайдер
Тема 2. Бренды и спецпредложения
Тема 3. Инфо-блоки
Урок 2-3-8. Popup-окна
Тема 1. Popup-окна
Тема 2. ПОдведение итогов
ЗАКЛЮЧЕНИЕ
Урок 3. Заключение
Тема 1. Откуда брать картинки?
Тема 2. Откуда брать вдохновение?
Тема 3. Полезные расширения
Тема 4. Процесс рисования
Бонусы
БОНУС 1. Урок по адаптивному дизайну
БОНУС 2. Памятка для дизайнера

MI

Код: copyText_writeLink('this.parentNode.parentNode.nextSibling.nextSibling');
Код:
Формат                                   : MPEG-4
Профиль формата                          : Base Media / Version 2
Идентификатор кодека                     : mp42
Размер файла                             : 146 Мбайт
Продолжительность                        : 32 м.
Режим общего битрейта                    : Переменный
Общий поток                              : 626 Кбит/сек
Дата кодирования                         : UTC 2014-11-12 07:18:54
Дата пометки                             : UTC 2014-11-12 07:18:54
Видео
Идентификатор                            : 1
Формат                                   : AVC
Формат/Информация                        : Advanced Video Codec
Профиль формата                          : High@L3.1
Параметр CABAC формата                   : Да
Параметр ReFrames формата                : 4 кадра
Идентификатор кодека                     : avc1
Идентификатор кодека/Информация          : Advanced Video Coding
Продолжительность                        : 32 м.
Битрейт                                  : 475 Кбит/сек
Ширина                                   : 1280 пикселей
Высота                                   : 720 пикселей
Соотношение сторон                       : 16:9
Режим частоты кадров                     : Постоянный
Частота кадров                           : 30,000 кадров/сек
Цветовое пространство                    : YUV
Субдискретизация насыщенности            : 4:2:0
Битовая глубина                          : 8 бит
Тип развёртки                            : Прогрессивная
Бит/(Пиксели*Кадры)                      : 0.017
Размер потока                            : 111 Мбайт (76%)
Библиотека кодирования                   : x264 core 142 r11 dd79a61
Настройки программы                      : cabac=1 / ref=3 / deblock=1:0:0 / analyse=0x3:0x113 / me=hex / subme=7 / psy=1 / psy_rd=1.00:0.00 / mixed_ref=1 / me_range=16 / chroma_me=1 / trellis=1 / 8x8dct=1 / cqm=0 / deadzone=21,11 / fast_pskip=1 / chroma_qp_offset=-2 / threads=72 / lookahead_threads=5 / sliced_threads=0 / nr=0 / decimate=1 / interlaced=0 / bluray_compat=0 / stitchable=1 / constrained_intra=0 / bframes=3 / b_pyramid=2 / b_adapt=1 / b_bias=0 / direct=1 / weightb=1 / open_gop=0 / weightp=2 / keyint=90 / keyint_min=30 / scenecut=40 / intra_refresh=0 / rc_lookahead=40 / rc=crf / mbtree=1 / crf=20.0 / qcomp=0.60 / qpmin=5 / qpmax=69 / qpstep=4 / vbv_maxrate=2750 / vbv_bufsize=7500 / crf_max=0.0 / nal_hrd=none / filler=0 / ip_ratio=1.40 / aq=1:1.00
Дата кодирования                         : UTC 2014-11-12 07:18:54
Дата пометки                             : UTC 2014-11-12 07:18:54
Аудио
Идентификатор                            : 2
Формат                                   : AAC
Формат/Информация                        : Advanced Audio Codec
Профиль формата                          : LC
Идентификатор кодека                     : 40
Продолжительность                        : 32 м.
Вид битрейта                             : Переменный
Битрейт                                  : 147 Кбит/сек
Каналы                                   : 2 канала
Расположение каналов                     : Front: L R
Частота                                  : 48,0 КГц
Метод сжатия                             : С потерями
Размер потока                            : 34,3 Мбайт (23%)
Дата кодирования                         : UTC 2014-11-12 07:18:54
Дата пометки                             : UTC 2014-11-12 07:18:54

Скриншоты


_________________
Показать сообщения:    

Текущее время: Сегодня 07:06

Часовой пояс: GMT



Вы не можете начинать темы
Вы не можете отвечать на сообщения
Вы не можете редактировать свои сообщения
Вы не можете удалять свои сообщения
Вы не можете голосовать в опросах
Вы не можете прикреплять файлы к сообщениям
Вы не можете скачивать файлы