Ивановский Торрент трекер
Яндекс.Погода
 

[Цитировать]
HUNTER

Наука о невероятном (Наука о невозможном) / Science Impossible
Дата/Год выпуска: 2010
Страна: США, Atlas mtdia Corp
Жанр: Документальный, познавательный, экстрим
Продолжительность: 6 x ~ 00:50:08
Перевод: Профессиональный (дублированный)
Русские субтитры: нет
Режиссер: Брюс Дэвид Клейн / Bruce David Klein
Описание: Представьте, что можно разбить стекло силой голоса или взобраться на лестницу, сделанную из чрезвычайно острых мечей. Мы уже десятилетиями наблюдаем за такими удивительными способностями по телевидению и читаем о них в мировых бестселлерах, таких как "Книга рекордов Гиннеса". Однако мы так и не получили ответа на самый животрепещущий вопрос: как такое возможно? "Наука о невероятном" расскажет о поисках научного обоснования этих удивительных трюков группой врачей, ученых и других экспертов. Используя современные методы медицинской диагностической визуализации и ряд научных экспериментов, наши эксперты поднимут завесу над тем, как и почему такие чудеса возможны.Как людям удается балансировать всем телом на кончике заточенного копья, глотать осколки стекла, подниматься по ступенькам из острых шпаг, подвергаться воздействию миллионов вольт электричества… и оставаться целыми и невридимыми. Программа представляет захватывающий экскурс за границы человеческих возможностей. В каждой серии вас ждут четыре истории о необычных талантах, необъяснимых трюках и анормальных физических способностях. В «Науке о невероятном» демонстрируются трюки, на первый взгляд кажущиеся невероятными и необъяснимыми, а затем научное расследование объясняет их с рациональной точки зрения. При помощи медицинских приборов диагностической визуализации и ряда научных тестов наши эксперты доказывают, что самые невероятные трюки отнюдь НЕ невозможны.
Сэмпл: http://sendfile.su/983160
качество: SATRip
формат: AVI
Видео: Xvid, 720x400, 25fps, 1 700 Kbps
Аудио: AC3, 48000Hz, stereo, 192kbps

MediaInfo

N:\Videos\Nauka.o.neverojatnom.(2.sezon).2010.XviD.SATRip.Thunder\Nauka.o.neverojatnom.(2.sezon.1.s.iz.6).2010.XviD.SATRip.avi General Complete name : N:\Videos\Nauka.o.neverojatnom.(2.sezon).2010.XviD.SATRip.Thunder\Nauka.o.neverojatnom.(2.sezon.1.s.iz.6).2010.XviD.SATRip.avi Format : AVI Format/Info : Audio Video Interleave File size : 699 MiB Duration : 51mn 24s Overall bit rate : 1 901 Kbps Director : SATRip by Thunder Writing application : VirtualDubMod 1.5.10.3 | www.virtualdub-fr.org || (build 2550/release) Original source form/Name : Documentary Video #0 ID : 0 Format : MPEG-4 Visual Format profile : Advanced Simple@L5 Format settings, BVOP : Yes Format settings, QPel : No Format settings, GMC : No warppoints Format settings, Matrix : Default (H.263) Codec ID : XVID Codec ID/Hint : XviD Duration : 51mn 24s Bit rate : 1 700 Kbps Width : 720 pixels Height : 400 pixels Display aspect ratio : 16:9 Frame rate : 25.000 fps Color space : YUV Chroma subsampling : 4:2:0 Bit depth : 8 bits Scan type : Progressive Bits/(Pixel*Frame) : 0.236 Stream size : 625 MiB (89%) Writing library : XviD 1.2.1 (UTC 2008-12-04) Audio #1 ID : 1 Format : AC-3 Format/Info : Audio Coding 3 Mode extension : CM (complete main) Codec ID : 2000 Duration : 51mn 24s Bit rate mode : Constant Bit rate : 192 Kbps Channel(s) : 2 channels Channel positions : Front: L R Sampling rate : 48.0 KHz Bit depth : 16 bits Stream size : 70.6 MiB (10%) Alignment : Split accross interleaves Interleave, duration : 40 ms (1.00 video frame) Interleave, preload duration : 500 ms

Скриншоты


Показать сообщения:    

Текущее время: 24-Окт 03:07

Часовой пояс: UTC - 1


Вы не можете начинать темы
Вы не можете отвечать на сообщения
Вы не можете редактировать свои сообщения
Вы не можете удалять свои сообщения
Вы не можете голосовать в опросах
Вы не можете прикреплять файлы к сообщениям
Вы не можете скачивать файлы

!ВНИМАНИЕ!
Сайт не предоставляет электронные версии произведений, а занимается лишь коллекционированием и каталогизацией ссылок, присылаемых и публикуемых на форуме нашими читателями. Если вы являетесь правообладателем какого-либо представленного материала и не желаете, чтобы ссылка на него находилась в нашем каталоге, свяжитесь с нами, и мы незамедлительно удалим ее. Файлы для обмена на трекере предоставлены пользователями сайта, и администрация не несет ответственности за их содержание. Просьба не заливать файлы, защищенные авторскими правами, а также файлы нелегального содержания!