Ивановский Торрент трекер
Яндекс.Погода
 

[Цитировать]
HUNTER

Настоящая битва за Сталинград. Правда Ветерана
Участник битвы за Сталинград рассказывает о фильме Фёдора Бондарчука «СТАЛИНГРАД»
Год выпуска: 2013
Страна: Беларусь
Автор: Алексей Носов
Жанр: Просветительский
Продолжительность: 00:09:54
Перевод: Не требуется
Язык: Русский
Описание: Август - октябрь 1942 года, молодой Александр в качестве танкиста попадает в Сталинград. В рядах Красной армии он вместе с городскими ополченцами ведет бои за город. Уничтожает три вражеских танка и получает ранение.
Мы пригласили Александра Федоровича посмотреть вместе с нами новый фильм Федора Бондарчука «Сталинград», чтобы оценить уровень пусть и художественной, но военной картины. Что в фильме правда, а что ложь, и как все было на самом деле, смотрите в нашем видеорепортаже.
Качество: TVRip
Формат: AVI
Видео кодек: DivX
Аудио кодек: MP3
Видео: 720x400 (1.80:1), 23.976 fps, DivX Codec 4.x ~1788 kbps avg, 0.25 bit/pixel
Аудио: 44.100 kHz, MPEG Layer 3, 2 ch, ~128.00 kbps avg

MediaInfo

General
Complete name : C:\rusvera\stalingrad.avi
Format : AVI
Format/Info : Audio Video Interleave
File size : 137 MiB
Duration : 9mn 54s
Overall bit rate : 1 929 Kbps
Writing application : Lavf52.32.0
Video
ID : 0
Format : MPEG-4 Visual
Format profile : Simple@L1
Format settings, BVOP : No
Format settings, QPel : No
Format settings, GMC : No warppoints
Format settings, Matrix : Default (H.263)
Codec ID : DIVX
Codec ID/Info : Project Mayo
Codec ID/Hint : DivX 4
Duration : 9mn 54s
Bit rate : 1 789 Kbps
Width : 720 pixels
Height : 400 pixels
Display aspect ratio : 16:9
Frame rate : 23.976 fps
Color space : YUV
Chroma subsampling : 4:2:0
Bit depth : 8 bits
Scan type : Progressive
Compression mode : Lossy
Bits/(Pixel*Frame) : 0.259
Stream size : 127 MiB (93%)
Writing library : Lavc52.22.3
Audio
ID : 1
Format : MPEG Audio
Format version : Version 1
Format profile : Layer 3
Mode : Joint stereo
Mode extension : MS Stereo
Codec ID : 55
Codec ID/Hint : MP3
Duration : 9mn 54s
Bit rate mode : Constant
Bit rate : 128 Kbps
Channel(s) : 2 channels
Sampling rate : 44.1 KHz
Compression mode : Lossy
Stream size : 9.07 MiB (7%)
Alignment : Aligned on interleaves
Interleave, duration : 26 ms (0.63 video frame)
Writing library : LAME3.98.2

Скриншоты



Показать сообщения:    

Текущее время: 13-Дек 15:08

Часовой пояс: UTC ± 0


Вы не можете начинать темы
Вы не можете отвечать на сообщения
Вы не можете редактировать свои сообщения
Вы не можете удалять свои сообщения
Вы не можете голосовать в опросах
Вы не можете прикреплять файлы к сообщениям
Вы не можете скачивать файлы

!ВНИМАНИЕ!
Сайт не предоставляет электронные версии произведений, а занимается лишь коллекционированием и каталогизацией ссылок, присылаемых и публикуемых на форуме нашими читателями. Если вы являетесь правообладателем какого-либо представленного материала и не желаете, чтобы ссылка на него находилась в нашем каталоге, свяжитесь с нами, и мы незамедлительно удалим ее. Файлы для обмена на трекере предоставлены пользователями сайта, и администрация не несет ответственности за их содержание. Просьба не заливать файлы, защищенные авторскими правами, а также файлы нелегального содержания!