Ивановский Торрент трекер
Яндекс.Погода
 

[Цитировать]
HUNTER

-Настольный футбол / Metegol / Futbolin-- Страна: Аргентина, Испания
Жанр: мультфильм, приключения, семейный, спорт
Продолжительность: 01:46:38
Год выпуска: 2013
Перевод: профессиональный многоголосый закадровый (AlexFilm)
Субтитры: русские, испанские-Режиссёр: Хуан Хосе Кампанелла (Juan Jose Campanella)
Роли озвучивали: Фабиан Джианола, Горацио Фонтова, Лусия Масьель, Давид Масахник, Пабло Раго, Диего Рамос, Мигель Анхель Родригез, Коко Сили...-Описание: История Амадео, застенчивого мальчика с добрым сердцем, и его друзей — отважных футболистов, с помощью которых Амадео должен вернуть себе честь, достоинство и настоящую любовь. Это фильм о дружбе, верности и страсти, действие которого разворачивается на футбольном поле.-Релиз:
Перевод: Константин Кривоногов
Монтаж и сведение звука: Михаил Шорыгин
Озвучание:
  • Татьяна Манетина
  • Владимир Курдов
  • Михаил Суслов
  • Сергей Пономарёв
  • Роман Сопко
  • Константин Погодаев- -Качество: BDRemux 1080p
    Формат: MKV
    Видео кодек: H264
    Аудио кодек: DTS, AC3
    Видео: 1920x1080 (16:9), 23,976 fps, MPEG-4 AVC ~22.2 Mbps kbps avg, 0.446 bit/pixel
    Аудио 1: [RUS] 48 kHz/24bit, DTS, 3/2 (L,C,R,l,r) + LFE ch, ~768 kbps (MVO AlexFilm)
    Аудио 2: [ESP] 48 kHz/24bit, DTS, 3/2 (L,C,R,l,r) + LFE ch, ~768 kbps (Argentinean)
    Аудио 2: [ESP] 48 kHz/24bit, DTS, 3/2 (L,C,R,l,r) + LFE ch, ~768 kbps (Castellano)
    Аудио 2: [ESP] 48 kHz/24bit, DTS, 3/2 (L,C,R,l,r) + LFE ch, ~768 kbps (Latino Neutro)
    Аудио 2: [ESP] 48 kHz, AC3 Dolby Digital, 2/0 (L,R) ch, ~192 kbps (Comentarios Director)-Цитата:
Переведено и озвучено при поддержке пользователей AlexFilm и HDClub: maxximik, Sk1f7mu, Пак Чой, Дамбо, ghostrider, gelom, Maike, pacienti, irrlicht, r0mka, trava, olsdy, Sportage.

-

MediaInfo

Format : Matroska
Format version : Version 4 / Version 2
File size : 19.3 GiB
Duration : 1h 46mn
Overall bit rate mode : Variable
Overall bit rate : 26.0 Mbps
Movie name : Metegol 2013 @ AlexFilm
Encoded date : UTC 2014-11-26 00:10:54
Writing application : mkvmerge v6.6.0 ('The Edge Of The In Between') built on Dec 1 2013 17:55:00
Writing library : libebml v1.3.0 + libmatroska v1.4.1
Video
ID : 1
Format : AVC
Format/Info : Advanced Video Codec
Format profile : High@L4.1
Format settings, CABAC : Yes
Format settings, ReFrames : 2 frames
Codec ID : V_MPEG4/ISO/AVC
Duration : 1h 46mn
Bit rate mode : Variable
Bit rate : 22.2 Mbps
Maximum bit rate : 35.0 Mbps
Width : 1 920 pixels
Height : 1 080 pixels
Display aspect ratio : 16:9
Frame rate mode : Constant
Frame rate : 23.976 fps
Color space : YUV
Chroma subsampling : 4:2:0
Bit depth : 8 bits
Scan type : Progressive
Bits/(Pixel*Frame) : 0.446
Stream size : 16.5 GiB (85%)
Language : Spanish
Default : Yes
Forced : No
Color primaries : BT.709
Transfer characteristics : BT.709
Matrix coefficients : BT.709
Audio #1
ID : 2
Format : DTS
Format/Info : Digital Theater Systems
Mode : 16
Format settings, Endianness : Big
Codec ID : A_DTS
Duration : 1h 46mn
Bit rate mode : Constant
Bit rate : 768 Kbps
Channel(s) : 6 channels
Channel positions : Front: L C R, Side: L R, LFE
Sampling rate : 48.0 KHz
Bit depth : 24 bits
Compression mode : Lossy
Stream size : 586 MiB (3%)
Title : DTS 5.1 AlexFilm
Language : Russian
Default : Yes
Forced : No
Audio #2
ID : 3
Format : DTS
Format/Info : Digital Theater Systems
Mode : 16
Format settings, Endianness : Big
Codec ID : A_DTS
Duration : 1h 46mn
Bit rate mode : Constant
Bit rate : 768 Kbps
Channel(s) : 6 channels
Channel positions : Front: L C R, Side: L R, LFE
Sampling rate : 48.0 KHz
Bit depth : 24 bits
Compression mode : Lossy
Stream size : 586 MiB (3%)
Title : DTS 5.1 Argentinean
Language : Spanish
Default : No
Forced : No
Audio #3
ID : 4
Format : DTS
Format/Info : Digital Theater Systems
Mode : 16
Format settings, Endianness : Big
Codec ID : A_DTS
Duration : 1h 46mn
Bit rate mode : Constant
Bit rate : 768 Kbps
Channel(s) : 6 channels
Channel positions : Front: L C R, Side: L R, LFE
Sampling rate : 48.0 KHz
Bit depth : 24 bits
Compression mode : Lossy
Stream size : 586 MiB (3%)
Title : DTS 5.1 Castellano
Language : Spanish
Default : No
Forced : No
Audio #4
ID : 5
Format : DTS
Format/Info : Digital Theater Systems
Mode : 16
Format settings, Endianness : Big
Codec ID : A_DTS
Duration : 1h 46mn
Bit rate mode : Constant
Bit rate : 768 Kbps
Channel(s) : 6 channels
Channel positions : Front: L C R, Side: L R, LFE
Sampling rate : 48.0 KHz
Bit depth : 24 bits
Compression mode : Lossy
Stream size : 586 MiB (3%)
Title : DTS 5.1 Latino Neutro
Language : Spanish
Default : No
Forced : No
Audio #5
ID : 6
Format : AC-3
Format/Info : Audio Coding 3
Format profile : Dolby Digital
Mode extension : CM (complete main)
Format settings, Endianness : Big
Codec ID : A_AC3
Duration : 1h 46mn
Bit rate mode : Constant
Bit rate : 192 Kbps
Channel(s) : 2 channels
Channel positions : Front: L R
Sampling rate : 48.0 KHz
Bit depth : 16 bits
Compression mode : Lossy
Stream size : 146 MiB (1%)
Title : DD2.0 Comentarios Director (Argentinean)
Language : Spanish
Default : No
Forced : No
Text #1
ID : 7
Format : UTF-8
Codec ID : S_TEXT/UTF8
Codec ID/Info : UTF-8 Plain Text
Title : AlexFilm
Language : Russian
Default : No
Forced : No
Text #2
ID : 8
Format : UTF-8
Codec ID : S_TEXT/UTF8
Codec ID/Info : UTF-8 Plain Text
Title : Castellano
Language : Spanish
Default : No
Forced : No
Text #3
ID : 9
Format : UTF-8
Codec ID : S_TEXT/UTF8
Codec ID/Info : UTF-8 Plain Text
Title : Latino Neutro
Language : Spanish
Default : No
Forced : No
Text #4
ID : 10
Format : UTF-8
Codec ID : S_TEXT/UTF8
Codec ID/Info : UTF-8 Plain Text
Title : Comentarios Director (Argentinean)
Language : Spanish
Default : No
Forced : No
Menu
00:00:00.000 : es:01
00:04:15.713 : es:02
00:13:07.745 : es:03
00:22:28.805 : es:04
00:27:48.083 : es:05
00:34:20.808 : es:06
00:39:25.446 : es:07
00:44:32.711 : es:08
00:50:44.332 : es:09
00:55:13.351 : es:10
00:59:43.580 : es:11
01:05:22.001 : es:12
01:07:09.859 : es:13
01:10:19.632 : es:14
01:13:17.309 : es:15
01:19:24.593 : es:16
01:24:44.496 : es:17
01:28:25.717 : es:18
01:34:16.609 : es:19
01:36:38.417 : es:20

Скриншоты


-
Показать сообщения:    

Текущее время: 21-Сен 18:29

Часовой пояс: UTC - 1


Вы не можете начинать темы
Вы не можете отвечать на сообщения
Вы не можете редактировать свои сообщения
Вы не можете удалять свои сообщения
Вы не можете голосовать в опросах
Вы не можете прикреплять файлы к сообщениям
Вы не можете скачивать файлы

!ВНИМАНИЕ!
Сайт не предоставляет электронные версии произведений, а занимается лишь коллекционированием и каталогизацией ссылок, присылаемых и публикуемых на форуме нашими читателями. Если вы являетесь правообладателем какого-либо представленного материала и не желаете, чтобы ссылка на него находилась в нашем каталоге, свяжитесь с нами, и мы незамедлительно удалим ее. Файлы для обмена на трекере предоставлены пользователями сайта, и администрация не несет ответственности за их содержание. Просьба не заливать файлы, защищенные авторскими правами, а также файлы нелегального содержания!