Ивановский Торрент трекер
Яндекс.Погода
 

[Цитировать]
HUNTER

Насаждающий закон / The Enforcer- Год выпуска: 1951
Страна: США
Жанр: фильм-нуар, драма, криминал
Продолжительность: 01:25:43
Перевод 1: Профессиональный (многоголосый закадровый) Film Prestige
Перевод 2: Профессиональный (двухголосый закадровый) НТВ+
Оригинальная аудиодорожка: Английская
Cубтитры: Русские (Film Prestige), английские, французские, румынские-Режиссер: Британи Виндаст / Bretaigne Windust
В ролях: Хамфри Богарт, Зеро Мостел, Тед де Корсиа, Эверетт Слоун, Рой Робертс, Майкл Толан, Кинг Донован, Боб Стил-Описание:
Мрачнейший триллер, в котором герою Хамфри Богарта (1899-1957) противостоит неуловимый Синдикат убийц, поставивший преступления на конвейер. На его счету кровь двух тысяч человек. Все они были убиты по приказу Альберта Мендозы, создавшего совершенно новый вид бизнеса — убийство по заказу... Никто не мог бросить вызов могущественному синдикату головорезов, пока один бесстрашный человек не поставил целью разрушить до основания эту империю зла.
Мендоза совершил в жизни только одну ошибку — в самом начале своей кровавой карьеры собственными руками убил человека на глазах у двух свидетелей — таксиста Ветто и его маленькой дочери. Спустя какое-то время по его приказу таксист был убит, но девочке удалось скрыться, сменить имя и скрываться долгие 10 лет. Теперь ее выследили и развязка неизбежна, а ведь только она способна помочь помощнику окружного прокурора Фергюсону посадить Мендозу на электрический стул...
Навсегда запоминается знаменитая финальная фраза Богарта: "Я хочу увидеть, как улыбка судьбы погаснет на лице Мендозы, когда он посмотрит в ваши огромные голубые глаза!"-За работу со звуком спасибо AnryV.
| | Сэмпл-Качество: BDRip 720p (SbR)
Контейнер: MKV
Видео: x264, 982x720 (1.37:1), 23.976 fps, 15530 kbps
Аудио 1: Русский AC3 2.0, 48 kHz, 192 kbps — Film Prestige
Аудио 2: Русский AC3 2.0, 48 kHz, 192 kbps — НТВ+
Аудио 3: Английский FLAC 2.0, 48 kHz, 290 kbps

Скриншоты



Source ....................................................... Encode

MI

nfo
SoURCE..........: The Enforcer 1951 1080p Blu-ray AVC DTS-HD MA 1.0-ESiR (thanx DBaT)FiLE.NAME.......: The Enforcer 1951 720p BluRay flac2.0 x264-SbRRUNTiME.........: 01:25:43SiZE............: 9,47 GbViDEO.CODEC.....: x264, l4.1, crf=17.5FRAMERATE.......: 23.976BiTRATE.........: 15 530 kbpsRESOLUTiON......: 982x720 (4:3)AUDiO...........: English flac 2.0 ~ 290 kbpsCHAPTERS........: Yes (unnamed)SUBTiTLES.......: Russian, French, Romanian
ENCODER.........: nevermndRELEASE.DATE....: 27/09/2013
x264:
x264 [info]: frame I:687 Avg QP:17.52 size:111609
x264 [info]: frame P:20565 Avg QP:17.81 size: 89076
x264 [info]: frame B:102067 Avg QP:18.61 size: 79129
x264 [info]: consecutive B-frames: 0.8% 0.9% 3.1% 10.0% 10.8% 39.2% 8.2% 2.8% 7.4% 2.1% 4.3% 6.4% 1.9% 0.7% 0.9% 0.1% 0.4%
encoded 123319 frames, 2.23 fps, 15530.46 kb/s, duration 15:21:50.59
thanx AnryV for original track
General
Unique ID : 171030893152246024160684856115396591416 (0x80AB5A1315DE4AE88D6E79575BF7BF38)
Complete name : The Enforcer 1951 720p BluRay dd flac2.0 x264-SbR.mkv
Format : Matroska
Format version : Version 2
File size : 9.70 GiB
Duration : 1 h 25 min
Overall bit rate mode : Variable
Overall bit rate : 16.2 Mb/s
Movie name : The Enforcer / Насаждающий закон (1951) – RuTracker
Encoded date : UTC 2016-08-14 10:10:01
Writing application : mkvmerge v9.3.1 ('Mask Machine') 64bit
Writing library : libebml v1.3.4 + libmatroska v1.4.5
Cover : Yes
Attachments : cover.jpg
Video
ID : 1
Format : AVC
Format/Info : Advanced Video Codec
Format profile : High@L4.1
Format settings, CABAC : Yes
Format settings, ReFrames : 11 frames
Codec ID : V_MPEG4/ISO/AVC
Duration : 1 h 25 min
Width : 982 pixels
Height : 720 pixels
Display aspect ratio : 4:3
Frame rate mode : Constant
Frame rate : 23.976 (24000/1001) FPS
Color space : YUV
Chroma subsampling : 4:2:0
Bit depth : 8 bits
Scan type : Progressive
Title : The Enforcer 1951 720p BluRAy flac2.0 x264-SbR
Writing library : x264 core 138 r2358kMod 9e941d1
Encoding settings : cabac=1 / ref=11 / deblock=1:-3:-3 / analyse=0x3:0x133 / me=tesa / subme=11 / psy=1 / fade_compensate=0.00 / psy_rd=0.90:0.00 / mixed_ref=1 / me_range=24 / chroma_me=1 / trellis=2 / 8x8dct=1 / cqm=0 / deadzone=6,6 / fast_pskip=0 / chroma_qp_offset=-2 / threads=12 / lookahead_threads=3 / sliced_threads=0 / nr=0 / decimate=0 / interlaced=0 / bluray_compat=0 / constrained_intra=0 / bframes=16 / b_pyramid=2 / b_adapt=2 / b_bias=0 / direct=3 / weightb=1 / open_gop=0 / weightp=2 / keyint=250 / keyint_min=23 / scenecut=40 / intra_refresh=0 / rc=crf / mbtree=0 / crf=17.5000 / qcomp=0.80 / qpmin=0 / qpmax=69 / qpstep=4 / ip_ratio=1.10 / pb_ratio=1.10 / aq=1:0.80 / zones=0,143,b=0.80/92507,93810,b=0.80
Language : English
Default : Yes
Forced : No
Color range : Limited
Color primaries : BT.709
Transfer characteristics : BT.709
Matrix coefficients : BT.709
Audio #1
ID : 2
Format : AC-3
Format/Info : Audio Coding 3
Format profile : Dolby Digital
Mode extension : CM (complete main)
Format settings, Endianness : Big
Codec ID : A_AC3
Duration : 1 h 25 min
Bit rate mode : Constant
Bit rate : 192 kb/s
Channel(s) : 2 channels
Channel positions : Front: L R
Sampling rate : 48.0 kHz
Frame rate : 31.250 FPS (1536 spf)
Compression mode : Lossy
Stream size : 118 MiB (1%)
Title : MVO – Film Prestige
Language : Russian
Default : Yes
Forced : No
Audio #2
ID : 3
Format : AC-3
Format/Info : Audio Coding 3
Format profile : Dolby Digital
Mode extension : CM (complete main)
Format settings, Endianness : Big
Codec ID : A_AC3
Duration : 1 h 25 min
Bit rate mode : Constant
Bit rate : 192 kb/s
Channel(s) : 2 channels
Channel positions : Front: L R
Sampling rate : 48.0 kHz
Frame rate : 31.250 FPS (1536 spf)
Compression mode : Lossy
Stream size : 118 MiB (1%)
Title : DVO – НТВ+
Language : Russian
Default : No
Forced : No
Audio #3
ID : 4
Format : FLAC
Format/Info : Free Lossless Audio Codec
Codec ID : A_FLAC
Duration : 1 h 25 min
Bit rate mode : Variable
Channel(s) : 2 channels
Channel positions : Front: L R
Sampling rate : 48.0 kHz
Bit depth : 16 bits
Title : Original
Writing library : libFLAC 1.2.1 (UTC 2007-09-17)
Language : English
Default : No
Forced : No
Text #1
ID : 5
Format : UTF-8
Codec ID : S_TEXT/UTF8
Codec ID/Info : UTF-8 Plain Text
Title : Film Prestige
Language : Russian
Default : No
Forced : No
Text #2
ID : 6
Format : UTF-8
Codec ID : S_TEXT/UTF8
Codec ID/Info : UTF-8 Plain Text
Language : English
Default : No
Forced : No
Text #3
ID : 7
Format : UTF-8
Codec ID : S_TEXT/UTF8
Codec ID/Info : UTF-8 Plain Text
Language : French
Default : No
Forced : No
Text #4
ID : 8
Format : UTF-8
Codec ID : S_TEXT/UTF8
Codec ID/Info : UTF-8 Plain Text
Language : Romanian
Default : No
Forced : No
Menu
00:00:00.000 : en:Chapter 1
00:15:27.927 : en:Chapter 2
00:23:01.838 : en:Chapter 3
00:33:29.132 : en:Chapter 4
00:41:22.229 : en:Chapter 5
00:49:41.478 : en:Chapter 6
01:01:05.578 : en:Chapter 7
01:15:53.840 : en:Chapter 8


Показать сообщения:    

Текущее время: 13-Дек 16:59

Часовой пояс: UTC ± 0


Вы не можете начинать темы
Вы не можете отвечать на сообщения
Вы не можете редактировать свои сообщения
Вы не можете удалять свои сообщения
Вы не можете голосовать в опросах
Вы не можете прикреплять файлы к сообщениям
Вы не можете скачивать файлы

!ВНИМАНИЕ!
Сайт не предоставляет электронные версии произведений, а занимается лишь коллекционированием и каталогизацией ссылок, присылаемых и публикуемых на форуме нашими читателями. Если вы являетесь правообладателем какого-либо представленного материала и не желаете, чтобы ссылка на него находилась в нашем каталоге, свяжитесь с нами, и мы незамедлительно удалим ее. Файлы для обмена на трекере предоставлены пользователями сайта, и администрация не несет ответственности за их содержание. Просьба не заливать файлы, защищенные авторскими правами, а также файлы нелегального содержания!