Ивановский Торрент трекер
Яндекс.Погода
 

[Цитировать]
HUNTER

Нарочно не придумаешь
Выпущено: Беларусь, продюсерская компания "Медиапрофсоюз"
Жанр: мелодрама
Год выпуска: 2013
Продолжительность: 01:44:39
Язык: русский
Оригинальная аудиодорожка: русская
Субтитры: нет
Режиссер: Александр Хван
В ролях: Елена Дробышева, Татьяна Чердынцева, Владислав Ветров, Сергей Жбанков, Игорь Денисов, Анна Маланкина, Светлана Аникей, Оксана Лесная
Описание: Марине за 40, она работает портнихой в ателье, живёт со взрослой дочкой Лерой, которую вырастила и воспитала одна. Мысленно «поставив на себе крест», Марина не замечает, что в неё влюбляется клиент - солидный бизнесмен Велигоров, только очень застенчивый...

Автор рипа / записи: fanatus
Исходник: Запись с телеканала РОССИЯ HD
Качество: HDTVRip 720p
Формат: MKV
Видео кодек: H.264
Аудио кодек: AC3
Видео: MPEG-4 AVC, 3349 kbps , 1280x720 (16:9), 25.000 fps, 0.145 bit/pixel
Аудио: русский (AC3, 2 ch, 48 kHz, 192 kbps)
MediaInfo
General
Unique ID : 191350516255429467981807112448010433694 (0x8FF4C4D77BF83A0B83EA668B3A89349E)
Complete name : E:\Narochno_ne_pridumaesh.2013.x264.HDTVRip.720p.fanatus.mkv
Format : Matroska
Format version : Version 2
File size : 2.59 GiB
Duration : 1h 44mn
Overall bit rate : 3 541 Kbps
Movie name : Narochno ne pridumaesh (2013) - fanatus
Encoded date : UTC 2014-05-22 22:14:41
Writing application : mkvmerge v3.4.0 ('Rapunzel') сборка от May 15 2010 09:38:20
Writing library : libebml v0.8.0 + libmatroska v0.9.0
Video
ID : 1
Format : AVC
Format/Info : Advanced Video Codec
Format profile : High@L4.1
Format settings, CABAC : Yes
Format settings, ReFrames : 8 frames
Codec ID : V_MPEG4/ISO/AVC
Duration : 1h 44mn
Bit rate : 3 349 Kbps
Width : 1 280 pixels
Height : 720 pixels
Display aspect ratio : 16:9
Frame rate : 25.000 fps
Color space : YUV
Chroma subsampling : 4:2:0
Bit depth : 8 bits
Scan type : Progressive
Bits/(Pixel*Frame) : 0.145
Stream size : 2.40 GiB (93%)
Title : Narochno ne pridumaesh (2013) HDTVRip (720p)
Writing library : x264 core 142 r2409 d6b4e63
Encoding settings : cabac=1 / ref=8 / deblock=1:-2:-2 / analyse=0x3:0x113 / me=umh / subme=10 / psy=1 / psy_rd=1.00:0.10 / mixed_ref=1 / me_range=32 / chroma_me=1 / trellis=2 / 8x8dct=1 / cqm=0 / deadzone=21,11 / fast_pskip=0 / chroma_qp_offset=-3 / threads=16 / lookahead_threads=2 / sliced_threads=0 / nr=0 / decimate=0 / interlaced=0 / bluray_compat=0 / constrained_intra=0 / bframes=8 / b_pyramid=2 / b_adapt=2 / b_bias=0 / direct=3 / weightb=1 / open_gop=0 / weightp=2 / keyint=250 / keyint_min=25 / scenecut=40 / intra_refresh=0 / rc=2pass / mbtree=0 / bitrate=3349 / ratetol=1.0 / qcomp=0.65 / qpmin=0 / qpmax=69 / qpstep=4 / cplxblur=20.0 / qblur=0.5 / ip_ratio=1.40 / pb_ratio=1.30 / aq=1:0.90
Language : Russian
Default : Yes
Forced : No
Audio
ID : 2
Format : AC-3
Format/Info : Audio Coding 3
Mode extension : CM (complete main)
Format settings, Endianness : Big
Codec ID : A_AC3
Duration : 1h 44mn
Bit rate mode : Constant
Bit rate : 192 Kbps
Channel(s) : 2 channels
Channel positions : Front: L R
Sampling rate : 48.0 KHz
Bit depth : 16 bits
Compression mode : Lossy
Stream size : 144 MiB (5%)
Language : Russian
Default : Yes
Forced : No
Скриншот c названием фильма Скриншоты
Показать сообщения:    

Текущее время: 18-Окт 02:57

Часовой пояс: UTC - 1


Вы не можете начинать темы
Вы не можете отвечать на сообщения
Вы не можете редактировать свои сообщения
Вы не можете удалять свои сообщения
Вы не можете голосовать в опросах
Вы не можете прикреплять файлы к сообщениям
Вы не можете скачивать файлы

!ВНИМАНИЕ!
Сайт не предоставляет электронные версии произведений, а занимается лишь коллекционированием и каталогизацией ссылок, присылаемых и публикуемых на форуме нашими читателями. Если вы являетесь правообладателем какого-либо представленного материала и не желаете, чтобы ссылка на него находилась в нашем каталоге, свяжитесь с нами, и мы незамедлительно удалим ее. Файлы для обмена на трекере предоставлены пользователями сайта, и администрация не несет ответственности за их содержание. Просьба не заливать файлы, защищенные авторскими правами, а также файлы нелегального содержания!