Важное объявление!
У Нас Все раздачи мультитрекерные, при нуле пиров в релизах, можете смело вставать на закачку!
 
Автор Сообщение

HUNTER

Стаж:
4 года 5 месяцев
Сообщений:
60866

Репутация: 101

[+] [-]
Вне форума [Профиль] [ЛС]

Напролом / The Hard Way
Страна: США
: Universal
Жанр: боевик
Год выпуска: 1991
Продолжительность: 01:
Перевод 1: Профессиональный (многоголосый закадровый) СТС
Перевод 2: Профессиональный (двухголосый закадровый) Премьер
Перевод 3: Профессиональный (многоголосый закадровый) 1 канал
Перевод 4: Профессиональный (многоголосый закадровый) ОРТ
Перевод 5: Профессиональный (двухголосый закадровый) ст.У-Элром
Перевод 6: Авторский В.Дохалов
Cубтитры: английские,испанские
Оригинальная аудиодорожка: английский
Режиссер: Джон Бэдэм/John Badham
В ролях: Майкл Дж. Фокс
Джеймс Вудс
Стивен Лэнг
Аннабелла Шиорра
Джон Каподиче
Луис Гузман
LL Кул Джей
Мэри Мара
Делрой Линдо
Конрад Робертс
Описание: Ник Лэнг — знаменитая голливудская звезда. У Ника есть лишь одна мечта: расстаться со своим имиджем «славного парня» и сыграть настоящего «крутого» героя. И тут, как раз кстати, возникает возможность исполнить роль отважного детектива.
Чтобы как можно лучше узнать о своем новом персонаже, Лэнг отправляется в Нью-Йорк, где знакомится с бывалым сыщиком Джоном Моссом, который должен помочь ему освоить полицейские приемы. Странная парочка отправляется на поиски самого настоящего серийного убийцы, терроризирующего весь город…
Доп. информация: Вновь пересобранное и "дополненное" издание данного диска : http://rutracker.org/forum/viewtopic.php?t=2038715
Пытался втолкнуть все имеющиеся дороги, но МУКСМАН был против ( по битрейту не пролезло ).
К ПРЕМЬЕРОВСКОЙ двухголоске добавились многоголоски СТС и ОРТ с раздачи уважаемого as-lelik : http://rutracker.org/forum/viewtopic.php?t=3285429
Затем многоголоска 1 канала спасибо Гость с раздачи : http://rutracker.org/forum/viewtopic.php?t=2838768
Авторский В.Дохалова брал у уважаемого PetrRomanov : http://rutracker.org/forum/viewtopic.php?t=1700630
Двухголоску студии У-Эльром где брал уж и не упомню ( прошу записавшего и скинувшего данную дорогу напомнить о себе, я внесу в раздачу данные ).
Еще две авторских дороги не влезли : Жучков/ Антон Боровой (Карповский) и Горчаков ( спасибо http://rutracker.org/forum/profile.php?mode=viewprofile&u=12692737 ). Но это к МУКСМАНУ!
Режиссер Джон Бэдэм один из любимых , стоит глянуть на список его фильмов :
Голубой гром (1982),
Короткое замыкание (1986),
Слежка (1987),
Птичка на проводе (1990) ,
Напролом (1991) ,
Слежка 2: Снова в засаде (1993) ,
Зона высадки (1994) ,
В последний момент (1995)..
.
Фильм разобран ДЕМУКСОМ, БИСВИТОМ и БИЛАЙТОМ, дороги подогнаны в ВЕГАСЕ , перебрано в ДВД Лабе , МУКСМАНЕ, РИМЕЙКЕ и СУБЭДИТЕ.
МЕНЮ правлено ФОТОШОПОМ.
Бонусы: треллер фильма "Страшилы" с Майклом Дж. Фоксом
Меню: Есть,английское/статичное
Сэмпл: http://multi-up.com/964393
Тип релиза: DVD5 (Custom)
Контейнер: DVD-Video
Видео: NTSC (720x480) VBR Auto Pan&Scan, Auto Letterboxed ~ 5394.68 kbps avg
Аудио 1: русский/многоголоска СТС, AC3, 2/0 (L,R) ch, 192 kbps, Delay 0 mSec
Аудио 2: английский/AC3, 2/0 (L,R) ch, 192 kbps, Delay 0 mSec
Аудио 3: русский/двухголоска Премьер, AC3, 2/0 (L,R) ch, 192 kbps, Delay 0 mSec
Аудио 4: русский/многоголоска 1 канала , AC3, 2/0 (L,R) ch, 192 kbps, Delay 0 mSec
Аудио 5: русский/многоголоска ОРТ , AC3, 2/0 (L,R) ch, 192 kbps, Delay 0 mSec
Аудио 6: русский/двухголоска ст.У-Элром, AC3, 2/0 (L,R) ch, 192 kbps, Delay 0 mSec
Аудио 7: русский/авторский В.Дохалов, AC3, 2/0 (L,R) ch, 192 kbps, Delay 0 mSec

MediaInfo

Title: NAPROLOM_[rutracker.org]
Size: 4.30 Gb ( 4 509 162,00 KBytes ) - DVD-5
Enabled regions: 1, 2, 3, 4, 5, 6, 7, 8
VTS_01 :
Play Length: 01:50:38
Video: NTSC 16:9 (720x480) VBR, Auto Pan&Scan, Auto Letterboxed
Audio:
Russian, AC3, 2/0 (L,R) ch, 192 kbps, Delay 0 mSec
English, AC3, 2/0 (L,R) ch, 192 kbps, Delay 0 mSec
Russian, AC3, 2/0 (L,R) ch, 192 kbps, Delay 0 mSec
Russian, AC3, 2/0 (L,R) ch, 192 kbps, Delay 0 mSec
Russian, AC3, 2/0 (L,R) ch, 192 kbps, Delay 0 mSec
Russian, AC3, 2/0 (L,R) ch, 192 kbps, Delay 0 mSec
Russian, AC3, 2/0 (L,R) ch, 192 kbps, Delay 0 mSec
Subtitles:
English
Espanol
VTS_02 :
Play Length: 00:02:07
Video: NTSC 4:3 (720x480) VBR
Audio:
English (Dolby AC3, 2 ch)
* Menus Information *
VIDEO_TS Menu
Video:
NTSC 16:9 (720x480) VBR
Auto Letterboxed
Audio:
Not specified (Dolby AC3, 6 ch)
English Language Unit :
Title Menu
VTS_01 Menu
Video:
NTSC 16:9 (720x480) VBR
Auto Letterboxed
English Language Unit :
Root Menu
VTS_02 Menu
Video:
NTSC 4:3 (720x480) VBR
Auto Pan&Scan, Auto Letterboxed
English Language Unit :
Root Menu
General
Complete name : D:\NAPROLOM_[rutracker.org]\VIDEO_TS\VTS_01_1.VOB
Format : MPEG-PS
File size : 1 024 MiB
Duration : 25mn 17s
Overall bit rate mode : Variable
Overall bit rate : 5 660 Kbps
Video
ID : 224 (0xE0)
Format : MPEG Video
Format version : Version 2
Format profile : Main@Main
Format settings, BVOP : Yes
Format settings, Matrix : Custom
Format settings, GOP : M=3, N=12
Duration : 25mn 17s
Bit rate mode : Variable
Bit rate : 4 204 Kbps
Maximum bit rate : 9 800 Kbps
Width : 720 pixels
Height : 480 pixels
Display aspect ratio : 16:9
Frame rate : 23.976 fps
Standard : Component
Color space : YUV
Chroma subsampling : 4:2:0
Bit depth : 8 bits
Scan type : Progressive
Scan order : 2:3 Pulldown
Compression mode : Lossy
Bits/(Pixel*Frame) : 0.507
Stream size : 760 MiB (74%)
Color primaries : SMPTE 170M
Transfer characteristics : SMPTE 170M
Matrix coefficients : SMPTE 170M
Audio #1
ID : 189 (0xBD)-128 (0x80)
Format : AC-3
Format/Info : Audio Coding 3
Mode extension : CM (complete main)
Muxing mode : DVD-Video
Duration : 25mn 17s
Bit rate mode : Constant
Bit rate : 192 Kbps
Channel(s) : 2 channels
Channel positions : Front: L R
Sampling rate : 48.0 KHz
Bit depth : 16 bits
Compression mode : Lossy
Stream size : 34.7 MiB (3%)
Audio #2
ID : 189 (0xBD)-129 (0x81)
Format : AC-3
Format/Info : Audio Coding 3
Format profile : Dolby Digital
Mode extension : CM (complete main)
Muxing mode : DVD-Video
Duration : 25mn 17s
Bit rate mode : Constant
Bit rate : 192 Kbps
Channel(s) : 2 channels
Channel positions : Front: L R
Sampling rate : 48.0 KHz
Bit depth : 16 bits
Compression mode : Lossy
Stream size : 34.7 MiB (3%)
Audio #3
ID : 189 (0xBD)-130 (0x82)
Format : AC-3
Format/Info : Audio Coding 3
Mode extension : CM (complete main)
Muxing mode : DVD-Video
Duration : 25mn 17s
Bit rate mode : Constant
Bit rate : 192 Kbps
Channel(s) : 2 channels
Channel positions : Front: L R
Sampling rate : 48.0 KHz
Bit depth : 16 bits
Compression mode : Lossy
Stream size : 34.7 MiB (3%)
Audio #4
ID : 189 (0xBD)-131 (0x83)
Format : AC-3
Format/Info : Audio Coding 3
Mode extension : CM (complete main)
Muxing mode : DVD-Video
Duration : 25mn 17s
Bit rate mode : Constant
Bit rate : 192 Kbps
Channel(s) : 2 channels
Channel positions : Front: L R
Sampling rate : 48.0 KHz
Bit depth : 16 bits
Compression mode : Lossy
Stream size : 34.7 MiB (3%)
Audio #5
ID : 189 (0xBD)-132 (0x84)
Format : AC-3
Format/Info : Audio Coding 3
Mode extension : CM (complete main)
Muxing mode : DVD-Video
Duration : 25mn 17s
Bit rate mode : Constant
Bit rate : 192 Kbps
Channel(s) : 2 channels
Channel positions : Front: L R
Sampling rate : 48.0 KHz
Bit depth : 16 bits
Compression mode : Lossy
Stream size : 34.7 MiB (3%)
Audio #6
ID : 189 (0xBD)-133 (0x85)
Format : AC-3
Format/Info : Audio Coding 3
Mode extension : CM (complete main)
Muxing mode : DVD-Video
Duration : 25mn 17s
Bit rate mode : Constant
Bit rate : 192 Kbps
Channel(s) : 2 channels
Channel positions : Front: L R
Sampling rate : 48.0 KHz
Bit depth : 16 bits
Compression mode : Lossy
Stream size : 34.7 MiB (3%)
Audio #7
ID : 189 (0xBD)-134 (0x86)
Format : AC-3
Format/Info : Audio Coding 3
Mode extension : CM (complete main)
Muxing mode : DVD-Video
Duration : 25mn 17s
Bit rate mode : Constant
Bit rate : 192 Kbps
Channel(s) : 2 channels
Channel positions : Front: L R
Sampling rate : 48.0 KHz
Bit depth : 16 bits
Compression mode : Lossy
Stream size : 34.7 MiB (3%)
Text #1
ID : 189 (0xBD)-32 (0x20)
Format : RLE
Format/Info : Run-length encoding
Muxing mode : DVD-Video
Text #2
ID : 189 (0xBD)-33 (0x21)
Format : RLE
Format/Info : Run-length encoding
Muxing mode : DVD-Video
Menu

Скриншоты меню






Скриншоты






Скриншоты доп. материалов


_________________
Показать сообщения:    

Текущее время: Сегодня 20:36

Часовой пояс: GMT



Вы не можете начинать темы
Вы не можете отвечать на сообщения
Вы не можете редактировать свои сообщения
Вы не можете удалять свои сообщения
Вы не можете голосовать в опросах
Вы не можете прикреплять файлы к сообщениям
Вы не можете скачивать файлы
Наши партнеры: интернет магазин Ивановского трикотажа textilla.ru