Важное объявление!
У Нас Все раздачи мультитрекерные, при нуле пиров в релизах, можете смело вставать на закачку!
 
Автор Сообщение

HUNTER

Стаж:
4 года 10 месяцев
Сообщений:
65561

Репутация: 101

[+] [-]
Вне форума [Профиль] [ЛС]

Направление: Марс / Destination: Mars
Год выпуска: 2000
Страна: США
Жанр: документальный
Продолжительность: 2 х 51 минуты 53 минуты
Перевод: Субтитры
Оригинальная аудиодорожка: английский
Режиссер: не известен
Описание: Двухсерийный фильм про подготовку и осуществление миссии на Марс.
В первой серии рассказывается о группе Mars Underground, где главный инженер Боб Зубрин делится своими мыслями о проекте.
Во второй серии рассказывается о полёте на Марс.
Доп. информация: Перевод с Болгарского: Dimital Nemchev
Материал предоставил: Slavnus Spacedust
Качество: DVDRip
Формат: AVI
Видео: XVID, 512x384, 4:3, 1646-1715 kbps, 29.970 fps
Аудио: AC3, 192 Kbps, 48.0 KHz, 2 channels
Формат субтитров: SoftSub (srt)

Скриншоты

Первая серия:
-Вторая серия:

MediaInfo

1-я серия
GeneralComplete name : M:\SpaceDust\01.Space\02.USA\2000 - Направление Марс - Destination Mars\Destination Mars 1 (2000).aviFormat : AVIFormat/Info : Audio Video InterleaveFile size : 699 MiBDuration : 51mn 2sOverall bit rate : 1 916 KbpsWriting application : VirtualDubMod 1.5.4.1 (build 2178/release)Writing library : VirtualDubMod build 2178/release
VideoID : 0Format : MPEG-4 VisualFormat profile : Simple@L3Format settings, BVOP : 1Format settings, QPel : NoFormat settings, GMC : No warppointsFormat settings, Matrix : CustomCodec ID : XVIDCodec ID/Hint : XviDDuration : 51mn 2sBit rate : 1 715 KbpsWidth : 512 pixelsHeight : 384 pixelsDisplay aspect ratio : 4:3Frame rate : 29.970 fpsColor space : YUVChroma subsampling : 4:2:0Bit depth : 8 bitsScan type : ProgressiveCompression mode : LossyBits/(Pixel*Frame) : 0.291Stream size : 626 MiB (90%)Writing library : XviD 0.0.09 (UTC 2003-03-25)
AudioID : 1Format : AC-3Format/Info : Audio Coding 3Mode extension : CM (complete main)Format settings, Endianness : BigCodec ID : 2000Duration : 51mn 2sBit rate mode : ConstantBit rate : 192 KbpsChannel(s) : 2 channelsChannel positions : Front: L RSampling rate : 48.0 KHzBit depth : 16 bitsCompression mode : LossyStream size : 70.1 MiB (10%)Alignment : Split accross interleavesInterleave, duration : 67 ms (2.00 video frames)Interleave, preload duration : 500 ms

2-я серия

GeneralComplete name : M:\SpaceDust\01.Space\02.USA\2000 - Направление Марс - Destination Mars\Destination Mars 2 (2000).aviFormat : AVIFormat/Info : Audio Video InterleaveFile size : 699 MiBDuration : 52mn 56sOverall bit rate : 1 847 KbpsWriting application : VirtualDubMod 1.5.4.1 (build 2178/release)Writing library : VirtualDubMod build 2178/release
VideoID : 0Format : MPEG-4 VisualFormat profile : Simple@L3Format settings, BVOP : 1Format settings, QPel : NoFormat settings, GMC : No warppointsFormat settings, Matrix : CustomCodec ID : XVIDCodec ID/Hint : XviDDuration : 52mn 56sBit rate : 1 646 KbpsWidth : 512 pixelsHeight : 384 pixelsDisplay aspect ratio : 4:3Frame rate : 29.970 fpsColor space : YUVChroma subsampling : 4:2:0Bit depth : 8 bitsScan type : ProgressiveCompression mode : LossyBits/(Pixel*Frame) : 0.279Stream size : 623 MiB (89%)Writing library : XviD 0.0.09 (UTC 2003-03-25)
AudioID : 1Format : AC-3Format/Info : Audio Coding 3Mode extension : CM (complete main)Format settings, Endianness : BigCodec ID : 2000Duration : 52mn 56sBit rate mode : ConstantBit rate : 192 KbpsChannel(s) : 2 channelsChannel positions : Front: L RSampling rate : 48.0 KHzBit depth : 16 bitsCompression mode : LossyDelay relative to video : 8msStream size : 72.7 MiB (10%)Alignment : Split accross interleavesInterleave, duration : 67 ms (2.00 video frames)Interleave, preload duration : 500 ms

Пример субтитров

100:00:06,273 --> 00:00:08,008Марс.
200:00:08,742 --> 00:00:10,777Красная планета.
300:00:12,246 --> 00:00:15,682Ракеты достигалиее пересохшую поверхность,
400:00:16,283 --> 00:00:18,685но не люди.
500:00:20,521 --> 00:00:25,058Расстояние между Землёй и Марсом- неблагоприятное для путешествия.
600:00:25,158 --> 00:00:29,696Даже метеоритная пыльможет повредить корабль.
700:00:30,130 --> 00:00:33,767Чтобы достичь планеты, нужнанеиспытанная человеческая смелость
800:00:33,901 --> 00:00:36,603и лучшие научные умы.
900:00:37,171 --> 00:00:39,940В начале следующего века
1000:00:40,040 --> 00:00:43,577можно послать астронавтовна соседнюю планету.
Документальные фильмы о Марсе

_________________
Показать сообщения:    

Текущее время: Сегодня 13:43

Часовой пояс: GMT



Вы не можете начинать темы
Вы не можете отвечать на сообщения
Вы не можете редактировать свои сообщения
Вы не можете удалять свои сообщения
Вы не можете голосовать в опросах
Вы не можете прикреплять файлы к сообщениям
Вы не можете скачивать файлы