Нападение на 13-й участок / Assault on Precinct 13 (Жан-Франсуа Рише / Jean-Francois Richet) [2005, боевик, триллер, криминал, BDRip 720p] Dub + DVO (Tycoon) + MVO (Superbit) + AVO (Гаврилов) + Sub (Rus, Eng) + Original Eng :: Ивановский Торрент трекер
Важное объявление!
У Нас Все раздачи мультитрекерные, при нуле пиров в релизах, можете смело вставать на закачку!
 
Автор Сообщение

димитри37

Стаж:
4 года 3 месяца
Сообщений:
1236

Репутация: 127

[+] [-]
Вне форума [Профиль] [ЛС]

Нападение на 13-й участок / Assault on Precinct 13
Страна: США , Франция
Жанр: боевик, триллер, драма, криминал
Год выпуска: 2005
Продолжительность: 01:48:49-Перевод: Профессиональный (дублированный)
Перевод 2: Профессиональный (двухголосый закадровый) Tycoon
Перевод 3: Профессиональный (многоголосый закадровый) Superbit
Перевод 4: Авторский (одноголосый закадровый) Гаврилов
Cубтитры: русские, английские
Оригинальная аудиодорожка: английский-Режиссер: Жан-Франсуа Рише / Jean-Franзois Richet
В ролях: Итан Хоук, Лоренс Фишбёрн, Гэбриел Бирн, Мария Белло, Дреа де Маттео, Джон Легуизамо, Брайан Деннехи, Джа Рул, Карри Грэм, Аиша Хиндс, ...-Описание: Считанные часы остаются до закрытия 13-го полицейского участка. Но пока его сотрудники во главе с сержантом Роуником готовятся к встрече Нового года, снежная буря разворачивает к ним спецавтобус с преступниками. В их числе и только что захваченный гангстер Мэрион Бишоп.
Ничто, казалось бы, не позволит отвлечь полицейских от праздника: пока вооруженные люди в масках не нападают на участок. И блюстители закона вынуждены объединиться с преступниками, чтобы выжить этой ночью!-Сценаристы: Джон Карпентер, Джеймс ДеМонако
Продюсеры: Паскаль Кочето, Джеффри Сильвер, Стефан Сперри
Оператор: Роберт Ганц-
Тип релиза: BDRip
Контейнер: MKV
Видео: MPEG-4 AVC, 1280x534, 5561 Kbps, 23.976 fps
Аудио: AC-3, 6 channels, 48.0 KHz, 448 Kbps (Dub)
Аудио 2: AC-3, 6 channels, 48.0 KHz, 448 Kbps (DVO)
Аудио 3: DTS, 6 channels, 48.0 KHz, 768 Kbps (MVO)
Аудио 4: DTS, 6 channels, 48.0 KHz, 768 Kbps (AVO)
Аудио 5: DTS, 6 channels, 48.0 KHz, 1536 Kbps (Eng)

MediaInfo

General
Unique ID : 250335350652470708534568110069876026236 (0xBC54D5B53143B26881D39C720F606B7C)
Complete name : C:\Users\Y12\Downloads\Assault.on.Precinct.13.BDRip.720p.mkv
Format : Matroska
Format version : Version 4 / Version 2
File size : 7.21 GiB
Duration : 1h 48mn
Overall bit rate : 9 479 Kbps
Movie name : HDv0T
Encoded date : UTC 2013-05-16 19:34:57
Writing application : mkvmerge v6.2.0 ('Promised Land') built on Apr 28 2013 12:22:01
Writing library : libebml v1.3.0 + libmatroska v1.4.0
Video
ID : 1
Format : AVC
Format/Info : Advanced Video Codec
Format profile : High@L4.1
Format settings, CABAC : Yes
Format settings, ReFrames : 12 frames
Codec ID : V_MPEG4/ISO/AVC
Duration : 1h 48mn
Bit rate : 5 561 Kbps
Width : 1 280 pixels
Height : 534 pixels
Display aspect ratio : 2.40:1
Frame rate mode : Constant
Frame rate : 23.976 fps
Color space : YUV
Chroma subsampling : 4:2:0
Bit depth : 8 bits
Scan type : Progressive
Bits/(Pixel*Frame) : 0.339
Stream size : 4.09 GiB (57%)
Writing library : x264 core 115 r2008 4c552d8
Encoding settings : cabac=1 / ref=12 / deblock=1:-3:-3 / analyse=0x3:0x113 / me=umh / subme=10 / psy=1 / psy_rd=0.90:0.00 / mixed_ref=1 / me_range=24 / chroma_me=1 / trellis=2 / 8x8dct=1 / cqm=0 / deadzone=21,11 / fast_pskip=0 / chroma_qp_offset=-2 / threads=6 / sliced_threads=0 / nr=0 / decimate=0 / interlaced=0 / bluray_compat=0 / constrained_intra=0 / bframes=6 / b_pyramid=2 / b_adapt=2 / b_bias=0 / direct=3 / weightb=1 / open_gop=0 / weightp=2 / keyint=250 / keyint_min=23 / scenecut=40 / intra_refresh=0 / rc_lookahead=40 / rc=2pass / mbtree=1 / bitrate=5561 / ratetol=1.0 / qcomp=0.60 / qpmin=0 / qpmax=69 / qpstep=4 / cplxblur=20.0 / qblur=0.5 / ip_ratio=1.40 / aq=1:0.70
Language : English
Default : Yes
Forced : No
Audio #1
ID : 2
Format : AC-3
Format/Info : Audio Coding 3
Mode extension : CM (complete main)
Format settings, Endianness : Big
Codec ID : A_AC3
Duration : 1h 48mn
Bit rate mode : Constant
Bit rate : 448 Kbps
Channel(s) : 6 channels
Channel positions : Front: L C R, Side: L R, LFE
Sampling rate : 48.0 KHz
Bit depth : 16 bits
Compression mode : Lossy
Stream size : 349 MiB (5%)
Title : AC3 5.1 448 kbps |Дубляж|
Language : Russian
Default : Yes
Forced : No
Audio #2
ID : 3
Format : AC-3
Format/Info : Audio Coding 3
Mode extension : CM (complete main)
Format settings, Endianness : Big
Codec ID : A_AC3
Duration : 1h 48mn
Bit rate mode : Constant
Bit rate : 448 Kbps
Channel(s) : 6 channels
Channel positions : Front: L C R, Side: L R, LFE
Sampling rate : 48.0 KHz
Bit depth : 16 bits
Compression mode : Lossy
Stream size : 349 MiB (5%)
Title : AC3 5.1 448 kbps |Профессиональный (двухголосый) Tycoon|
Language : Russian
Default : No
Forced : No
Audio #3
ID : 4
Format : DTS
Format/Info : Digital Theater Systems
Mode : 16
Format settings, Endianness : Big
Codec ID : A_DTS
Duration : 1h 48mn
Bit rate mode : Constant
Bit rate : 755 Kbps
Channel(s) : 6 channels
Channel positions : Front: L C R, Side: L R, LFE
Sampling rate : 48.0 KHz
Bit depth : 24 bits
Compression mode : Lossy
Stream size : 587 MiB (8%)
Title : DTS 5.1 768 kbps |Профессиональный (Многоголосный) Superbit|
Language : Russian
Default : No
Forced : No
Audio #4
ID : 5
Format : DTS
Format/Info : Digital Theater Systems
Mode : 16
Format settings, Endianness : Big
Codec ID : A_DTS
Duration : 1h 48mn
Bit rate mode : Constant
Bit rate : 755 Kbps
Channel(s) : 6 channels
Channel positions : Front: L C R, Side: L R, LFE
Sampling rate : 48.0 KHz
Bit depth : 24 bits
Compression mode : Lossy
Stream size : 587 MiB (8%)
Title : DTS 5.1 768 kbps |Профессиональный (Авторский одноголосный) Гаврилов|
Language : Russian
Default : No
Forced : No
Audio #5
ID : 6
Format : DTS
Format/Info : Digital Theater Systems
Mode : 16
Format settings, Endianness : Big
Codec ID : A_DTS
Duration : 1h 48mn
Bit rate mode : Constant
Bit rate : 1 509 Kbps
Channel(s) : 6 channels
Channel positions : Front: L C R, Side: L R, LFE
Sampling rate : 48.0 KHz
Bit depth : 24 bits
Compression mode : Lossy
Stream size : 1.15 GiB (16%)
Language : English
Default : No
Forced : No
Text #1
ID : 7
Format : UTF-8
Codec ID : S_TEXT/UTF8
Codec ID/Info : UTF-8 Plain Text
Language : Russian
Default : No
Forced : No
Text #2
ID : 8
Format : UTF-8
Codec ID : S_TEXT/UTF8
Codec ID/Info : UTF-8 Plain Text
Language : English
Default : No
Forced : No
Menu
00:00:00.000 : en:00:00:00.000
00:05:04.721 : en:00:05:04.721
00:09:59.098 : en:00:09:59.098
00:14:21.611 : en:00:14:21.611
00:20:37.653 : en:00:20:37.653
00:24:33.389 : en:00:24:33.389
00:29:48.286 : en:00:29:48.286
00:34:06.378 : en:00:34:06.378
00:41:42.208 : en:00:41:42.208
00:48:28.531 : en:00:48:28.531
00:53:43.303 : en:00:53:43.303
00:58:46.606 : en:00:58:46.606
01:04:12.932 : en:01:04:12.932
01:09:54.649 : en:01:09:54.649
01:17:01.158 : en:01:17:01.158
01:20:57.519 : en:01:20:57.519
01:24:52.713 : en:01:24:52.713
01:29:19.938 : en:01:29:19.938
01:34:33.835 : en:01:34:33.835
01:42:26.599 : en:01:42:26.599

Скриншоты

-
Показать сообщения:    

Текущее время: Сегодня 03:51

Часовой пояс: GMT



Вы не можете начинать темы
Вы не можете отвечать на сообщения
Вы не можете редактировать свои сообщения
Вы не можете удалять свои сообщения
Вы не можете голосовать в опросах
Вы не можете прикреплять файлы к сообщениям
Вы не можете скачивать файлы