Ивановский Торрент трекер
Яндекс.Погода
 

[Цитировать]
HUNTER

Нападение на 13-й участок / Assault on Precinct 13«A White Hot Night of Hate!»- Страна: США
Год выпуска: 1976
Жанр: боевик, триллер, криминал, детектив
Продолжительность: 01:30:49
Перевод 1: Профессиональный (двухголосый закадровый)
Перевод 2: Авторский (одноголосый закадровый) Живов
Субтитры: русские, английские-Режиссер: Джон Карпентер / John Carpenter
В ролях: Остин Стокер, Дарвин Джостон, Лори Зиммер, Мартин Уэст, Тони Бертон, Чарльз Сайферс, Нэнси Кайс, Питер Бруни, Джон Дж. Фокс, Марк Росс, Алан Косс, Генри Брэндон-Описание: В первый же свой рабочий день лейтенант полиции Бишоп получает временное назначение на старый участок номер 13, который готовится к закрытию. Почти все имущество уже вывезено, электропровода и телефонные линии обрезаны. Но именно этот день члены самой «отмороженной» банды Лос-Анджелеса выбрали для мести за гибель шестерых своих товарищей.
Бандиты поклялись на крови уничтожить всех, кто находится в участке - немногочисленных полицейских, секретаршу и случайно оказавшихся там нескольких преступников, осужденных на смертную казнь. Чтобы остаться в живых, полностью отрезанным от внешнего мира полицейским и преступникам придется объединить усилия против превосходящих сил противника…- -Источник: Blu-Ray HDClub
Качество: BDRip
Формат: MKV
Видео кодек: MPEG-4 AVC
Аудио кодек: DTS
Видео: 1920x816 (2.35:1), 23.976 fps, x264 ~15.5 Mbps
Аудио 1: Русский 48 kHz, DTS 5.1, 1536 kbps | Двухголосый закадровый
Аудио 2: Русский 48 kHz, DTS 5.1, 1536 kbps | Одноголосый закадровый (Живов)
Аудио 3: English 48 kHz, DTS 5.1, 1536 kbps
Формат субтитров: softsub (SRT)-СкриншотыДоп. информация
Дорожка с двухголосым переводом сделана путем выделения голосов из стерео-дорожки этой раздачи и наложением на центральный канал оригинальной английской дорожки.
Сравнение с исходником
Blu-Ray

BDRip
MediaInfo
General
Unique ID                                : 233321699153776140676296326994451242061 (0xAF881FECD59DC9749DD09EDE0D301C4D)
Complete name                            : Assault.on.Precinct.13.1976.BDRip.1080p.h264.DTS.Rus.Eng.mkv
Format                                   : Matroska
Format version                           : Version 4 / Version 2
File size                                : 12.7 GiB
Duration                                 : 1h 30mn
Overall bit rate                         : 20.0 Mbps
Encoded date                             : UTC 2014-05-23 16:13:14
Writing application                      : mkvmerge v6.9.1 ('Blue Panther') 64bit built on Apr 18 2014 18:23:38
Writing library                          : libebml v1.3.0 + libmatroska v1.4.1
Video
ID                                       : 1
Format                                   : AVC
Format/Info                              : Advanced Video Codec
Format profile                           : High@L4.1
Format settings, CABAC                   : Yes
Format settings, ReFrames                : 5 frames
Codec ID                                 : V_MPEG4/ISO/AVC
Duration                                 : 1h 30mn
Bit rate                                 : 15.5 Mbps
Width                                    : 1 920 pixels
Height                                   : 816 pixels
Display aspect ratio                     : 2.35:1
Frame rate mode                          : Constant
Frame rate                               : 23.976 fps
Color space                              : YUV
Chroma subsampling                       : 4:2:0
Bit depth                                : 8 bits
Scan type                                : Progressive
Bits/(Pixel*Frame)                       : 0.413
Stream size                              : 9.58 GiB (75%)
Writing library                          : x264 core 130 r2273 b3065e6
Encoding settings                        : cabac=1 / ref=5 / deblock=1:-3:-3 / analyse=0x3:0x133 / me=umh / subme=11 / psy=1 / psy_rd=1.00:0.00 / mixed_ref=1 / me_range=48 / chroma_me=1 / trellis=2 / 8x8dct=1 / cqm=0 / deadzone=21,11 / fast_pskip=0 / chroma_qp_offset=-2 / threads=16 / lookahead_threads=4 / sliced_threads=0 / nr=0 / decimate=0 / interlaced=0 / bluray_compat=0 / constrained_intra=0 / bframes=10 / b_pyramid=2 / b_adapt=2 / b_bias=0 / direct=3 / weightb=1 / open_gop=0 / weightp=2 / keyint=250 / keyint_min=23 / scenecut=40 / intra_refresh=0 / rc=2pass / mbtree=0 / bitrate=15500 / ratetol=1.0 / qcomp=0.60 / qpmin=0 / qpmax=69 / qpstep=4 / cplxblur=20.0 / qblur=0.5 / ip_ratio=1.40 / pb_ratio=1.30 / aq=1:1.00
Language                                 : English
Default                                  : Yes
Forced                                   : No
Audio #1
ID                                       : 2
Format                                   : DTS
Format/Info                              : Digital Theater Systems
Mode                                     : 16
Format settings, Endianness              : Big
Codec ID                                 : A_DTS
Duration                                 : 1h 30mn
Bit rate mode                            : Constant
Bit rate                                 : 1 510 Kbps
Channel(s)                               : 6 channels
Channel positions                        : Front: L C R, Side: L R, LFE
Sampling rate                            : 48.0 KHz
Bit depth                                : 24 bits
Compression mode                         : Lossy
Stream size                              : 981 MiB (8%)
Title                                    : Двухголосый закадровый | DTS 5.1 @ 1536 kbps
Language                                 : Russian
Default                                  : Yes
Forced                                   : No
Audio #2
ID                                       : 3
Format                                   : DTS
Format/Info                              : Digital Theater Systems
Mode                                     : 16
Format settings, Endianness              : Big
Codec ID                                 : A_DTS
Duration                                 : 1h 30mn
Bit rate mode                            : Constant
Bit rate                                 : 1 509 Kbps
Channel(s)                               : 6 channels
Channel positions                        : Front: L C R, Side: L R, LFE
Sampling rate                            : 48.0 KHz
Bit depth                                : 16 bits
Compression mode                         : Lossy
Stream size                              : 980 MiB (8%)
Title                                    : Одноголосый закадровый (Живов) | DTS 5.1 @ 1536 kbps
Language                                 : Russian
Default                                  : No
Forced                                   : No
Audio #3
ID                                       : 4
Format                                   : DTS
Format/Info                              : Digital Theater Systems
Mode                                     : 16
Format settings, Endianness              : Big
Codec ID                                 : A_DTS
Duration                                 : 1h 30mn
Bit rate mode                            : Constant
Bit rate                                 : 1 509 Kbps
Channel(s)                               : 6 channels
Channel positions                        : Front: L C R, Side: L R, LFE
Sampling rate                            : 48.0 KHz
Bit depth                                : 16 bits
Compression mode                         : Lossy
Stream size                              : 980 MiB (8%)
Title                                    : Original | DTS 5.1 @ 1536 kbps
Language                                 : English
Default                                  : No
Forced                                   : No
Text #1
ID                                       : 5
Format                                   : UTF-8
Codec ID                                 : S_TEXT/UTF8
Codec ID/Info                            : UTF-8 Plain Text
Language                                 : Russian
Default                                  : No
Forced                                   : No
Text #2
ID                                       : 6
Format                                   : UTF-8
Codec ID                                 : S_TEXT/UTF8
Codec ID/Info                            : UTF-8 Plain Text
Language                                 : English
Default                                  : No
Forced                                   : No
Menu
00:00:00.000                             : en:Main Title
00:02:35.613                             : en:A Los Angeles Ghetto
00:06:09.786                             : en:First Night Out
00:08:46.275                             : en:Napoleon Wilson
00:13:33.312                             : en:Father and Daughter
00:15:04.320                             : en:Street Thunder
00:16:37.830                             : en:Princint 9, Division 13
00:23:23.402                             : en:Targets
00:25:30.111                             : en:A Talk With Wilson
00:28:37.048                             : en:The Wrong Flavor
00:33:37.265                             : en:Emergency
00:37:23.324                             : en:Lawson's Revenge
00:42:07.441                             : en:The Siege
00:51:40.305                             : en:Marked for Something
00:54:27.472                             : en:Second Wave
00:59:03.831                             : en:Julie
01:03:27.512                             : en:Like Nothing Happened
01:10:20.049                             : en:Potatoes
01:15:30.526                             : en:Well's Flight
01:17:40.322                             : en:To the Basement
01:21:20.500                             : en:Startin' to Rain
01:23:28.795                             : en:Last Stand
01:26:20.550                             : en:The Cavalry Arrives
01:29:42.210                             : en:End Credits
x264
avs [info]: 1920x816p 1:1 @ 2500000/104271 fps (cfr)
x264 [info]: using SAR=1/1
x264 [info]: using cpu capabilities: MMX2 SSE2Fast SSSE3 SSE4.2 AVX
x264 [info]: profile High, level 4.1
x264 [info]: frame I:879   Avg QP:14.50  size:247724
x264 [info]: frame P:22840 Avg QP:16.63  size:144104
x264 [info]: frame B:106937 Avg QP:18.47  size: 65881
x264 [info]: consecutive B-frames:  0.9%  0.7%  2.2% 10.3% 17.0% 34.0% 11.9% 19.6%  2.2%  0.5%  0.5%
x264 [info]: mb I  I16..4:  4.9% 81.4% 13.7%
x264 [info]: mb P  I16..4:  0.3% 35.2%  1.0%  P16..4: 18.2% 26.3% 13.2%  2.3%  0.1%    skip: 3.3%
x264 [info]: mb B  I16..4:  0.0%  2.9%  0.1%  B16..8: 41.3% 23.1%  5.4%  direct:13.4%  skip:13.8%  L0:41.3% L1:40.2% BI:18.5%
x264 [info]: 8x8 transform intra:95.4% inter:46.0%
x264 [info]: direct mvs  spatial:98.3% temporal:1.7%
x264 [info]: coded y,uvDC,uvAC intra: 98.5% 80.6% 58.8% inter: 64.3% 22.8% 7.2%
x264 [info]: i16 v,h,dc,p: 53% 12% 15% 20%
x264 [info]: i8 v,h,dc,ddl,ddr,vr,hd,vl,hu:  8%  7% 15% 11% 13% 11% 11% 11% 13%
x264 [info]: i4 v,h,dc,ddl,ddr,vr,hd,vl,hu:  8%  8%  7% 10% 15% 13% 14% 11% 15%
x264 [info]: i8c dc,h,v,p: 45% 24% 19% 12%
x264 [info]: Weighted P-Frames: Y:7.0% UV:4.0%
x264 [info]: ref P L0: 43.8% 10.8% 24.6% 10.0% 10.2%  0.6%  0.0%
x264 [info]: ref B L0: 85.9% 10.7%  2.5%  0.9%
x264 [info]: ref B L1: 95.5%  4.5%
x264 [info]: kb/s:15493.95
x264 [total]: encoded 130656 frames, 3.65 fps, 15493.95 kb/s


Показать сообщения:    

Текущее время: 17-Дек 19:52

Часовой пояс: UTC ± 0


Вы не можете начинать темы
Вы не можете отвечать на сообщения
Вы не можете редактировать свои сообщения
Вы не можете удалять свои сообщения
Вы не можете голосовать в опросах
Вы не можете прикреплять файлы к сообщениям
Вы не можете скачивать файлы

!ВНИМАНИЕ!
Сайт не предоставляет электронные версии произведений, а занимается лишь коллекционированием и каталогизацией ссылок, присылаемых и публикуемых на форуме нашими читателями. Если вы являетесь правообладателем какого-либо представленного материала и не желаете, чтобы ссылка на него находилась в нашем каталоге, свяжитесь с нами, и мы незамедлительно удалим ее. Файлы для обмена на трекере предоставлены пользователями сайта, и администрация не несет ответственности за их содержание. Просьба не заливать файлы, защищенные авторскими правами, а также файлы нелегального содержания!