Ивановский Торрент трекер
Яндекс.Погода
 

[Цитировать]
HUNTER

Нанесение на стены декоративных покрытий / How-To Guide to Faux Finishing
Страна: USA
Тематика: Дизайн, ремонт
Тип раздаваемого материала: Видеоурок
Продолжительность: 01:07:03
Год выпуска: 2004
Язык: Английский
Перевод: Отсутствует-Описание: Один из серии дисков HomeTime посвящен различным техникам нанесения декоративной штукатурки, губками, тряпочками итп.
Другие диски:
Руководство по укладке керамической плитки-Качество: DVDRip
Формат: AVI
Видео: XviD, 512x384, 4:3, 1322 Kbps, 29.97 fps
Аудио: MP3, 128 kbps, 48 kHz, 2 ch

MediaInfo

Format : AVIFormat/Info : Audio Video InterleaveFile size : 699 MiBDuration : 1h 7mnOverall bit rate mode : VariableOverall bit rate : 1 458 KbpsWriting application : VirtualDubMod 1.5.4.1 (build 2178/release)Writing library : VirtualDubMod build 2178/release
VideoID : 0Format : MPEG-4 VisualFormat profile : Advanced Simple@L5Format settings, BVOP : 1Format settings, QPel : NoFormat settings, GMC : No warppointsFormat settings, Matrix : Default (H.263)Muxing mode : Packed bitstreamCodec ID : XVIDCodec ID/Hint : XviDDuration : 1h 7mnBit rate : 1 322 KbpsWidth : 512 pixelsHeight : 384 pixelsDisplay aspect ratio : 4:3Frame rate : 29.970 fpsColor space : YUVChroma subsampling : 4:2:0Bit depth : 8 bitsScan type : ProgressiveCompression mode : LossyBits/(Pixel*Frame) : 0.224Stream size : 634 MiB (91%)Writing library : XviD 0039 build=2005.09.25 (UTC 2005-09-25)
AudioID : 1Format : MPEG AudioFormat version : Version 1Format profile : Layer 3Mode : Joint stereoMode extension : MS StereoCodec ID : 55Codec ID/Hint : MP3Duration : 1h 7mnBit rate mode : VariableBit rate : 128 KbpsChannel(s) : 2 channelsSampling rate : 48.0 KHzCompression mode : LossyStream size : 58.5 MiB (8%)Alignment : Aligned on interleavesInterleave, duration : 24 ms (0.72 video frame)Interleave, preload duration : 525 msWriting library : LAME3.96rEncoding settings : -m j -V 4 -q 2 -lowpass 17.5 --abr 128


Показать сообщения:    

Текущее время: 18-Дек 05:13

Часовой пояс: UTC ± 0


Вы не можете начинать темы
Вы не можете отвечать на сообщения
Вы не можете редактировать свои сообщения
Вы не можете удалять свои сообщения
Вы не можете голосовать в опросах
Вы не можете прикреплять файлы к сообщениям
Вы не можете скачивать файлы

!ВНИМАНИЕ!
Сайт не предоставляет электронные версии произведений, а занимается лишь коллекционированием и каталогизацией ссылок, присылаемых и публикуемых на форуме нашими читателями. Если вы являетесь правообладателем какого-либо представленного материала и не желаете, чтобы ссылка на него находилась в нашем каталоге, свяжитесь с нами, и мы незамедлительно удалим ее. Файлы для обмена на трекере предоставлены пользователями сайта, и администрация не несет ответственности за их содержание. Просьба не заливать файлы, защищенные авторскими правами, а также файлы нелегального содержания!