Назад в будущее: Трилогия / Back to the Future Trilogy (Роберт Земекис) [1985/1989/1990 г., фантастика, комедия, приключения BDRip] :: Ивановский Торрент трекер
Важное объявление!
У Нас Все раздачи мультитрекерные, при нуле пиров в релизах, можете смело вставать на закачку!
 
Автор Сообщение

HUNTER

Стаж:
4 года 11 месяцев
Сообщений:
66051

Репутация: 101

[+] [-]
Вне форума [Профиль] [ЛС]

Назад в будущее: Трилогия / Back to the Future Trilogy

Назад в будущее / Back to the Future

Назад в будущее
Back to the Future


-Год производства: 1985 г.
Страна: USA
Жанр: Фантастика, комедия, приключения
Продолжительность: 01:56:00
Перевод: Профессиональный (полное дублирование) / Профессиональный (многоголосный, закадровый) / Профессиональный (двухголосный, закадровый)
Субтитры: русские(5), английские(2)-Режиссер: Роберт Земекис / Robert Zemeckis-В ролях: Майкл Дж. Фокс (Marty McFly), Кристофер Ллойд (Dr. Emmett Brown), Лиа Томпсон (Lorraine Baines), Криспин Гловер (George McFly), Томас Ф. Уилсон (Biff Tannen), Клодия Уэллс (Jennifer Parker), Марк МакКлюр (Dave McFly), Уэнди Джо Спербер (Linda McFly), Джордж ДиЧенцо (Sam Baines), Фрэнсис Ли МакКейн (Stella Baines), Джеймс Толкан (Mr. Strickland), Дж.Дж. Коэн (Skinhead)-Описание: Подросток Марти с помощью машины времени, сооруженной его другом профессором доком Брауном, попадает из 80-х в далекие 50-е. Там он встречается со своими будущими родителями, еще подростками, и другом-профессором, совсем молодым.
Он нарушает естественный ход событий прошлого, чем вызывает массу смешных и драматических ситуаций. Собственная смекалка и фантазия профессора помогают преодолеть все препятствия и благополучно вернуться к себе, в свое время.
-Качество: BDRip (Исходник - Blu-ray)
Формат: MKV
Видео кодек: х264
Аудио кодек: AC3
Видео: 1280x694, 23.976 fps, x264, 4875.86 kbit/s
Аудио1: Русский DD 5.1 48 KHz 448 kbps[MVO_FDV]
Аудио2: Русский DD 5.1 48 KHz 448 kbps[Dub]
Аудио3: Русский DD 5.1 48 KHz 448 kbps[DVO_NTV]
Аудио4: Русский DD 5.1 48 KHz 448 kbps[DVO_Glanz]
Аудио5: Русский DD 5.1 48 KHz 448 kbps[DVO_Premier]
Аудио6: Английский DD 5.1 48KHz 448 kbps [Original]
Аудио7: Английский DD 2.0 48 KHz 192 kbps[Comments#1(Q&A)]
Аудио8: Английский DD 2.0 48 KHz 192 kbps[Comments#2(Producers)]
Субтитры №1: Russian; Forced UTF-8
Субтитры №2: Russian; Full[ver.1] UTF-8
Субтитры №3: Russian; Full[ver.2] UTF-8
Субтитры №4: English; Original UTF-8
Субтитры №5: English; Original[SDH] UTF-8
Субтитры №6: Russian; Comments#1[Q&A] UTF-8
Субтитры №7: Russian; Comments#2[Producers] UTF-8-

Скриншоты

Log и MediaInfo

Код: copyText_writeLink('this.parentNode.parentNode.nextSibling.nextSibling');
---[NoImage] raw [info]: 1280x694p 1:1 @ 10000000/417083 fps (cfr)
---[NoImage] x264 [info]: using SAR=1/1
---[NoImage] x264 [info]: using cpu capabilities: MMX2 SSE2Fast SSSE3 FastShuffle SSE4.2
---[NoImage] x264 [info]: profile High, level 4.1
---[NoImage] x264 [info]: frame I:1220 Avg QP:19.37 size: 95646 PSNR Mean Y:44.21 U:49.69 V:49.94 Avg:45.39 Global:44.89
---[NoImage] x264 [info]: frame P:35436 Avg QP:20.75 size: 47068 PSNR Mean Y:42.61 U:48.72 V:48.98 Avg:43.86 Global:43.21
---[NoImage] x264 [info]: frame B:130241 Avg QP:22.51 size: 18873 PSNR Mean Y:41.33 U:48.47 V:48.74 Avg:42.69 Global:42.08
---[NoImage] x264 [info]: consecutive B-frames: 0.7% 1.6% 5.2% 26.3% 20.7% 41.4% 2.5% 1.0% 0.3% 0.2% 0.1%
---[NoImage] x264 [info]: mb I I16..4: 4.4% 83.7% 11.9%
---[NoImage] x264 [info]: mb P I16..4: 0.5% 11.7% 1.3% P16..4: 45.1% 33.0% 4.0% 0.2% 0.1% skip: 4.1%
---[NoImage] x264 [info]: mb B I16..4: 0.0% 0.9% 0.1% B16..8: 45.7% 14.5% 3.7% direct: 8.1% skip:27.1% L0:44.3% L1:47.5% BI: 8.2%
---[NoImage] x264 [info]: 8x8 transform intra:86.4% inter:60.9%
---[NoImage] x264 [info]: direct mvs spatial:100.0% temporal:0.0%
---[NoImage] x264 [info]: coded y,uvDC,uvAC intra: 95.2% 68.2% 28.2% inter: 37.6% 20.9% 0.6%
---[NoImage] x264 [info]: i16 v,h,dc,p: 48% 21% 8% 23%
---[NoImage] x264 [info]: i8 v,h,dc,ddl,ddr,vr,hd,vl,hu: 12% 7% 5% 11% 15% 15% 14% 12% 11%
---[NoImage] x264 [info]: i4 v,h,dc,ddl,ddr,vr,hd,vl,hu: 12% 6% 2% 10% 16% 17% 14% 13% 11%
---[NoImage] x264 [info]: i8c dc,h,v,p: 35% 27% 21% 16%
---[NoImage] x264 [info]: Weighted P-Frames: Y:3.8%
---[NoImage] x264 [info]: ref P L0: 42.5% 11.4% 19.3% 6.9% 6.2% 4.4% 4.2% 2.3% 2.5% 0.3% 0.0%
---[NoImage] x264 [info]: ref B L0: 77.3% 10.4% 5.0% 2.6% 1.8% 1.6% 0.9% 0.4%
---[NoImage] x264 [info]: ref B L1: 94.6% 5.4%
---[NoImage] x264 [info]: SSIM Mean Y:0.9628278 (14.298db)
---[NoImage] x264 [info]: PSNR Mean Y:41.624 U:48.533 V:48.803 Avg:42.956 Global:42.313 kb/s:4875.86
---[NoImage] encoded 166897 frames, 2.05 fps, 4875.86 kb/s
Video
ID : 1
Format : AVC
Format/Info : Advanced Video Codec
Format profile : [url=mailto:High@L4.1]High@L4.1[/url]
Format settings, CABAC : Yes
Format settings, ReFrames : 9 frames
Muxing mode : Container profile=Unknown@4.1
Codec ID : V_MPEG4/ISO/AVC
Duration : 1h 56mn
Bit rate : 4 718 Kbps
Width : 1 280 pixels
Height : 694 pixels
Display aspect ratio : 16:9
Frame rate : 23.976 fps
Color space : YUV
Chroma subsampling : 4:2:0
Bit depth : 8 bits
Scan type : Progressive
Bits/(Pixel*Frame) : 0.222
Stream size : 3.83 GiB (59%)
Title : Back to the Future
Writing library : x264 core 107 r1766 f9f0035
Encoding settings : cabac=1 / ref=9 / deblock=1:-2:-2 / analyse=0x3:0x133 / me=tesa / subme=9 / psy=1 / psy_rd=1.25:0.00 / mixed_ref=1 / me_range=32 / chroma_me=1 / trellis=2 / 8x8dct=1 / cqm=0 / deadzone=21,11 / fast_pskip=0 / chroma_qp_offset=-2 / threads=9 / sliced_threads=0 / nr=0 / decimate=1 / interlaced=0 / constrained_intra=0 / bframes=10 / b_pyramid=2 / b_adapt=2 / b_bias=0 / direct=3 / weightb=1 / open_gop=0 / weightp=2 / keyint=250 / keyint_min=23 / scenecut=40 / intra_refresh=0 / rc_lookahead=60 / rc=crf / mbtree=0 / crf=19.9 / qcomp=0.60 / qpmin=10 / qpmax=51 / qpstep=4 / vbv_maxrate=50000 / vbv_bufsize=62500 / crf_max=0.0 / ip_ratio=1.40 / pb_ratio=1.30 / aq=1:1.00 / nal_hrd=none
Language : English
Color primaries : BT.709-5, BT.1361, IEC 61966-2-4, SMPTE RP177
Transfer characteristics : BT.709-5, BT.1361
Matrix coefficients : BT.709-5, BT.1361, IEC 61966-2-4 709, SMPTE RP177
Audio #1
ID : 2
Format : AC-3
Format/Info : Audio Coding 3
Mode extension : CM (complete main)
Codec ID : A_AC3
Duration : 1h 56mn
Bit rate mode : Constant
Bit rate : 448 Kbps
Channel(s) : 6 channels
Channel positions : Front: L C R, Side: L R, LFE
Sampling rate : 48.0 KHz
Bit depth : 16 bits
Stream size : 372 MiB (6%)
Title : DD 5.1 48 KHz 448 kbps[MVO_FDV]
Language : Russian
Audio #2
ID : 3
Format : AC-3
Format/Info : Audio Coding 3
Mode extension : CM (complete main)
Codec ID : A_AC3
Duration : 1h 56mn
Bit rate mode : Constant
Bit rate : 448 Kbps
Channel(s) : 6 channels
Channel positions : Front: L C R, Side: L R, LFE
Sampling rate : 48.0 KHz
Bit depth : 16 bits
Stream size : 372 MiB (6%)
Title : DD 5.1 48 KHz 448 kbps[Dub]
Language : Russian
Audio #3
ID : 4
Format : AC-3
Format/Info : Audio Coding 3
Mode extension : CM (complete main)
Codec ID : A_AC3
Duration : 1h 56mn
Bit rate mode : Constant
Bit rate : 448 Kbps
Channel(s) : 6 channels
Channel positions : Front: L C R, Side: L R, LFE
Sampling rate : 48.0 KHz
Bit depth : 16 bits
Stream size : 372 MiB (6%)
Title : DD 5.1 48 KHz 448 kbps[DVO_NTV]
Language : Russian
Audio #4
ID : 5
Format : AC-3
Format/Info : Audio Coding 3
Mode extension : CM (complete main)
Codec ID : A_AC3
Duration : 1h 56mn
Bit rate mode : Constant
Bit rate : 448 Kbps
Channel(s) : 6 channels
Channel positions : Front: L C R, Side: L R, LFE
Sampling rate : 48.0 KHz
Bit depth : 16 bits
Stream size : 372 MiB (6%)
Title : DD 5.1 48 KHz 448 kbps[DVO_Glanz]
Language : Russian
Audio #5
ID : 6
Format : AC-3
Format/Info : Audio Coding 3
Mode extension : CM (complete main)
Codec ID : A_AC3
Duration : 1h 56mn
Bit rate mode : Constant
Bit rate : 448 Kbps
Channel(s) : 6 channels
Channel positions : Front: L C R, Side: L R, LFE
Sampling rate : 48.0 KHz
Bit depth : 16 bits
Stream size : 372 MiB (6%)
Title : DD 5.1 48 KHz 448 kbps[DVO_Premier]
Language : Russian
Audio #6
ID : 7
Format : AC-3
Format/Info : Audio Coding 3
Mode extension : CM (complete main)
Codec ID : A_AC3
Duration : 1h 56mn
Bit rate mode : Constant
Bit rate : 448 Kbps
Channel(s) : 6 channels
Channel positions : Front: L C R, Side: L R, LFE
Sampling rate : 48.0 KHz
Bit depth : 16 bits
Stream size : 372 MiB (6%)
Title : DD 5.1 48 KHz 448 kbps[Original]
Language : English
Audio #7
ID : 8
Format : AC-3
Format/Info : Audio Coding 3
Mode extension : CM (complete main)
Codec ID : A_AC3
Duration : 1h 56mn
Bit rate mode : Constant
Bit rate : 192 Kbps
Channel(s) : 2 channels
Channel positions : Front: L R
Sampling rate : 48.0 KHz
Bit depth : 16 bits
Stream size : 159 MiB (2%)
Title : DD 2.0 48 KHz 192 kbps[Comments#1(Q&A)]
Language : English
Audio #8
ID : 9
Format : AC-3
Format/Info : Audio Coding 3
Format profile : Dolby Digital
Mode extension : CM (complete main)
Codec ID : A_AC3
Duration : 1h 56mn
Bit rate mode : Constant
Bit rate : 192 Kbps
Channel(s) : 2 channels
Channel positions : Front: L R
Sampling rate : 48.0 KHz
Bit depth : 16 bits
Stream size : 159 MiB (2%)
Title : DD 2.0 48 KHz 192 kbps[Comments#2(Producers)]
Language : English
Text #1
ID : 10
Format : UTF-8
Codec ID : S_TEXT/UTF8
Codec ID/Info : UTF-8 Plain Text
Title : Forced
Language : Russian
Text #2
ID : 11
Format : UTF-8
Codec ID : S_TEXT/UTF8
Codec ID/Info : UTF-8 Plain Text
Title : Full[ver.1]
Language : Russian
Text #3
ID : 12
Format : UTF-8
Codec ID : S_TEXT/UTF8
Codec ID/Info : UTF-8 Plain Text
Title : Full[ver.2]
Language : Russian
Text #4
ID : 13
Format : UTF-8
Codec ID : S_TEXT/UTF8
Codec ID/Info : UTF-8 Plain Text
Title : Original
Language : English
Text #5
ID : 14
Format : UTF-8
Codec ID : S_TEXT/UTF8
Codec ID/Info : UTF-8 Plain Text
Title : Original[SDH]
Language : English
Text #6
ID : 15
Format : UTF-8
Codec ID : S_TEXT/UTF8
Codec ID/Info : UTF-8 Plain Text
Title : Comments#1[Q&A]
Language : Russian
Text #7
ID : 16
Format : UTF-8
Codec ID : S_TEXT/UTF8
Codec ID/Info : UTF-8 Plain Text
Title : Comments#2[Producers]
Language : Russian
Menu
00:00:00.000 : en:1. Main Titles
00:04:13.544 : en:2. Late For School
00:06:47.281 : en:3. The Slacker
00:11:45.246 : en:4. The Family McFly
00:18:04.166 : en:5. A Time Machine?
00:28:12.273 : en:6. Escape From the Past
00:31:30.680 : en:7. 1955
00:38:40.693 : en:8. Dad the Dork
00:41:22.313 : en:9. Calvin & Lorraine
00:47:53.370 : en:10. Future Boy & Doc
00:55:53.141 : en:11. Marty's Problem
00:58:49.859 : en:12. The Matchmaker
01:05:16.787 : en:13. Skateboard Hero
01:16:40.304 : en:14. The Big Date
01:20:14.643 : en:15. The Real George
01:27:23.321 : en:16. Johnny B. Goode
01:31:12.049 : en:17. Back to the Future
01:41:40.552 : en:18. Doc's Decision
01:46:41.436 : en:19. Future Shock
01:51:24.511 : en:20. Roads? (Credits)

Назад в будущее 2 / Back to the Future Part II

Назад в будущее 2
Back to the Future Part II

-Год производства: 1989 г.
Страна: USA
Жанр: Фантастика, комедия, приключения
Продолжительность: 01:47:59
Перевод: Профессиональный (полное дублирование) / Профессиональный (многоголосный, закадровый) / Профессиональный (двухголосный, закадровый)
Субтитры: русские(5), английские(2)-Режиссер: Роберт Земекис / Robert Zemeckis-В ролях: Майкл Дж. Фокс (Marty McFly / Marty McFly Jr / Marlene McFly), Кристофер Ллойд (Dr. Emmett Brown), Лиа Томпсон (Lorraine), Томас Ф. Уилсон (Biff Tannen / Griff Tannen), Элизабет Шу (Jennifer Parker / Jennifer McFly), Джеймс Толкан (Mr. Strickland), Джеффри Вайсман (George McFly), Кэйси Семашко (3-D), Билли Зейн (Match), Дж.Дж. Коэн (Skinhead), Чарльз Флайшер (Terry), Э. Казанова Эванс ('Michael Jackson' Video Waiter)-Описание: Продолжение фантастической истории о приключениях американского подростка во времени. На этот раз с помощью модернизированной Доком машины времени Марти из 80-х попадает в будущее.
Дети Марти в беде, и их надо выручать. Приходится повозиться со злодеем...
-Качество: BDRip (Исходник - Blu-ray)
Формат: MKV
Видео кодек: х264
Аудио кодек: AC3
Видео: 1280x694, 23.976 fps, x264, 4387.60 kbit/s
Аудио1: Русский DD 5.1 48 KHz 448 kbps[MVO_FDV]
Аудио2: Русский DD 5.1 48 KHz 448 kbps[Dub]
Аудио3: Русский DD 5.1 48 KHz 448 kbps[DVO_NTV]
Аудио4: Русский DD 5.1 48 KHz 448 kbps[DVO_Glanz]
Аудио5: Русский DD 5.1 48 KHz 448 kbps[DVO_Premier]
Аудио6: Английский DD 5.1 48KHz 448 kbps [Original]
Аудио7: Английский DD 2.0 48 KHz 192 kbps[Comments#1(Q&A)]
Аудио8: Английский DD 2.0 48 KHz 192 kbps[Comments#2(Producers)]
Субтитры №1: Russian; Forced UTF-8
Субтитры №2: Russian; Full[ver.1] UTF-8
Субтитры №3: Russian; Full[ver.2] UTF-8
Субтитры №4: English; Original UTF-8
Субтитры №5: English; Original[SDH] UTF-8
Субтитры №6: Russian; Comments#1[Q&A] UTF-8
Субтитры №7: Russian; Comments#2[Producers] UTF-8-

Скриншоты

Log и MediaInfo

Код: copyText_writeLink('this.parentNode.parentNode.nextSibling.nextSibling');
---[NoImage] raw [info]: 1280x694p 1:1 @ 10000000/417083 fps (cfr)
---[NoImage] x264 [info]: using SAR=1/1
---[NoImage] x264 [info]: using cpu capabilities: MMX2 SSE2Fast SSSE3 FastShuffle SSE4.2
---[NoImage] x264 [info]: profile High, level 4.1
---[NoImage] x264 [info]: frame I:1134 Avg QP:16.79 size: 93158 PSNR Mean Y:46.62 U:51.03 V:51.58 Avg:47.53 Global:46.89
---[NoImage] x264 [info]: frame P:34322 Avg QP:17.74 size: 41130 PSNR Mean Y:46.03 U:51.84 V:52.37 Avg:46.92 Global:45.87
---[NoImage] x264 [info]: frame B:119892 Avg QP:19.89 size: 16984 PSNR Mean Y:44.32 U:50.87 V:51.42 Avg:45.42 Global:44.73
---[NoImage] x264 [info]: consecutive B-frames: 1.1% 2.2% 6.5% 29.2% 17.2% 38.6% 2.7% 1.7% 0.4% 0.2% 0.1%
---[NoImage] x264 [info]: mb I I16..4: 4.8% 81.5% 13.7%
---[NoImage] x264 [info]: mb P I16..4: 0.9% 13.1% 1.7% P16..4: 43.3% 30.9% 4.0% 0.2% 0.1% skip: 5.9%
---[NoImage] x264 [info]: mb B I16..4: 0.0% 1.0% 0.2% B16..8: 42.0% 14.9% 3.5% direct: 7.3% skip:31.1% L0:43.8% L1:46.5% BI: 9.7%
---[NoImage] x264 [info]: 8x8 transform intra:83.7% inter:61.8%
---[NoImage] x264 [info]: direct mvs spatial:99.9% temporal:0.1%
---[NoImage] x264 [info]: coded y,uvDC,uvAC intra: 91.9% 81.5% 51.2% inter: 31.5% 22.1% 1.1%
---[NoImage] x264 [info]: i16 v,h,dc,p: 43% 16% 6% 35%
---[NoImage] x264 [info]: i8 v,h,dc,ddl,ddr,vr,hd,vl,hu: 12% 8% 5% 10% 14% 14% 13% 12% 12%
---[NoImage] x264 [info]: i4 v,h,dc,ddl,ddr,vr,hd,vl,hu: 12% 6% 2% 10% 16% 16% 14% 12% 12%
---[NoImage] x264 [info]: i8c dc,h,v,p: 37% 27% 20% 16%
---[NoImage] x264 [info]: Weighted P-Frames: Y:3.4%
---[NoImage] x264 [info]: ref P L0: 45.1% 9.6% 19.6% 6.9% 5.9% 4.1% 3.9% 2.2% 2.3% 0.3% 0.0%
---[NoImage] x264 [info]: ref B L0: 77.1% 11.1% 4.9% 2.5% 1.7% 1.5% 0.9% 0.4%
---[NoImage] x264 [info]: ref B L1: 94.3% 5.7%
---[NoImage] x264 [info]: SSIM Mean Y:0.9810920 (17.234db)
---[NoImage] x264 [info]: PSNR Mean Y:44.714 U:51.086 V:51.632 Avg:45.768 Global:44.967 kb/s:4387.60
---[NoImage] encoded 155348 frames, 2.38 fps, 4387.60 kb/s
Video
ID : 1
Format : AVC
Format/Info : Advanced Video Codec
Format profile : [url=mailto:High@L4.1]High@L4.1[/url]
Format settings, CABAC : Yes
Format settings, ReFrames : 9 frames
Codec ID : V_MPEG4/ISO/AVC
Duration : 1h 48mn
Bit rate : 4 237 Kbps
Width : 1 280 pixels
Height : 694 pixels
Display aspect ratio : 16:9
Frame rate : 23.976 fps
Color space : YUV
Chroma subsampling : 4:2:0
Bit depth : 8 bits
Scan type : Progressive
Bits/(Pixel*Frame) : 0.199
Stream size : 3.20 GiB (57%)
Title : Back to the Future II
Writing library : x264 core 107 r1766 f9f0035
Encoding settings : cabac=1 / ref=9 / deblock=1:-2:-2 / analyse=0x3:0x133 / me=tesa / subme=9 / psy=1 / psy_rd=1.20:0.00 / mixed_ref=1 / me_range=32 / chroma_me=1 / trellis=2 / 8x8dct=1 / cqm=0 / deadzone=21,11 / fast_pskip=0 / chroma_qp_offset=-2 / threads=9 / sliced_threads=0 / nr=0 / decimate=1 / interlaced=0 / constrained_intra=0 / bframes=10 / b_pyramid=2 / b_adapt=2 / b_bias=0 / direct=3 / weightb=1 / open_gop=0 / weightp=2 / keyint=250 / keyint_min=23 / scenecut=40 / intra_refresh=0 / rc_lookahead=60 / rc=crf / mbtree=0 / crf=18.7 / qcomp=0.60 / qpmin=10 / qpmax=51 / qpstep=4 / vbv_maxrate=50000 / vbv_bufsize=62500 / crf_max=0.0 / ip_ratio=1.40 / pb_ratio=1.30 / aq=1:1.10 / nal_hrd=none
Language : English
Color primaries : BT.709-5, BT.1361, IEC 61966-2-4, SMPTE RP177
Transfer characteristics : BT.709-5, BT.1361
Matrix coefficients : BT.709-5, BT.1361, IEC 61966-2-4 709, SMPTE RP177
Audio #1
ID : 2
Format : AC-3
Format/Info : Audio Coding 3
Mode extension : CM (complete main)
Codec ID : A_AC3
Duration : 1h 48mn
Bit rate mode : Constant
Bit rate : 448 Kbps
Channel(s) : 6 channels
Channel positions : Front: L C R, Side: L R, LFE
Sampling rate : 48.0 KHz
Bit depth : 16 bits
Compression mode : Lossy
Stream size : 346 MiB (6%)
Title : DD 5.1 48 KHz 448 kbps[MVO_FDV]
Language : Russian
Audio #2
ID : 3
Format : AC-3
Format/Info : Audio Coding 3
Mode extension : CM (complete main)
Codec ID : A_AC3
Duration : 1h 48mn
Bit rate mode : Constant
Bit rate : 448 Kbps
Channel(s) : 6 channels
Channel positions : Front: L C R, Side: L R, LFE
Sampling rate : 48.0 KHz
Bit depth : 16 bits
Compression mode : Lossy
Stream size : 346 MiB (6%)
Title : DD 5.1 48 KHz 448 kbps[Dub]
Language : Russian
Audio #3
ID : 4
Format : AC-3
Format/Info : Audio Coding 3
Mode extension : CM (complete main)
Codec ID : A_AC3
Duration : 1h 48mn
Bit rate mode : Constant
Bit rate : 448 Kbps
Channel(s) : 6 channels
Channel positions : Front: L C R, Side: L R, LFE
Sampling rate : 48.0 KHz
Bit depth : 16 bits
Compression mode : Lossy
Stream size : 346 MiB (6%)
Title : DD 5.1 48 KHz 448 kbps[DVO_NTV]
Language : Russian
Audio #4
ID : 5
Format : AC-3
Format/Info : Audio Coding 3
Mode extension : CM (complete main)
Codec ID : A_AC3
Duration : 1h 48mn
Bit rate mode : Constant
Bit rate : 448 Kbps
Channel(s) : 6 channels
Channel positions : Front: L C R, Side: L R, LFE
Sampling rate : 48.0 KHz
Bit depth : 16 bits
Compression mode : Lossy
Stream size : 346 MiB (6%)
Title : DD 5.1 48 KHz 448 kbps[DVO_Glanz]
Language : Russian
Audio #5
ID : 6
Format : AC-3
Format/Info : Audio Coding 3
Mode extension : CM (complete main)
Codec ID : A_AC3
Duration : 1h 48mn
Bit rate mode : Constant
Bit rate : 448 Kbps
Channel(s) : 6 channels
Channel positions : Front: L C R, Side: L R, LFE
Sampling rate : 48.0 KHz
Bit depth : 16 bits
Compression mode : Lossy
Stream size : 346 MiB (6%)
Title : DD 5.1 48 KHz 448 kbps[DVO_Premier]
Language : Russian
Audio #6
ID : 7
Format : AC-3
Format/Info : Audio Coding 3
Mode extension : CM (complete main)
Codec ID : A_AC3
Duration : 1h 48mn
Bit rate mode : Constant
Bit rate : 448 Kbps
Channel(s) : 6 channels
Channel positions : Front: L C R, Side: L R, LFE
Sampling rate : 48.0 KHz
Bit depth : 16 bits
Compression mode : Lossy
Stream size : 346 MiB (6%)
Title : DD 5.1 48 KHz 448 kbps[Original]
Language : English
Audio #7
ID : 8
Format : AC-3
Format/Info : Audio Coding 3
Mode extension : CM (complete main)
Codec ID : A_AC3
Duration : 1h 48mn
Bit rate mode : Constant
Bit rate : 192 Kbps
Channel(s) : 2 channels
Channel positions : Front: L R
Sampling rate : 48.0 KHz
Bit depth : 16 bits
Compression mode : Lossy
Stream size : 148 MiB (3%)
Title : DD 2.0 48 KHz 192 kbps[Comments#1(Q&A)]
Language : English
Audio #8
ID : 9
Format : AC-3
Format/Info : Audio Coding 3
Format profile : Dolby Digital
Mode extension : CM (complete main)
Codec ID : A_AC3
Duration : 1h 48mn
Bit rate mode : Constant
Bit rate : 192 Kbps
Channel(s) : 2 channels
Channel positions : Front: L R
Sampling rate : 48.0 KHz
Bit depth : 16 bits
Compression mode : Lossy
Stream size : 148 MiB (3%)
Title : DD 2.0 48 KHz 192 kbps[Comments#2(Producers)]
Language : English
Text #1
ID : 10
Format : UTF-8
Codec ID : S_TEXT/UTF8
Codec ID/Info : UTF-8 Plain Text
Title : Forced
Language : Russian
Text #2
ID : 11
Format : UTF-8
Codec ID : S_TEXT/UTF8
Codec ID/Info : UTF-8 Plain Text
Title : Full[ver.1]
Language : Russian
Text #3
ID : 12
Format : UTF-8
Codec ID : S_TEXT/UTF8
Codec ID/Info : UTF-8 Plain Text
Title : Full[ver.2]
Language : Russian
Text #4
ID : 13
Format : UTF-8
Codec ID : S_TEXT/UTF8
Codec ID/Info : UTF-8 Plain Text
Title : Original
Language : English
Text #5
ID : 14
Format : UTF-8
Codec ID : S_TEXT/UTF8
Codec ID/Info : UTF-8 Plain Text
Title : Original[SDH]
Language : English
Text #6
ID : 15
Format : UTF-8
Codec ID : S_TEXT/UTF8
Codec ID/Info : UTF-8 Plain Text
Title : Comments#1[Q&A]
Language : Russian
Text #7
ID : 16
Format : UTF-8
Codec ID : S_TEXT/UTF8
Codec ID/Info : UTF-8 Plain Text
Title : Comments#2[Producers]
Language : Russian
Menu
00:00:00.000 : en:1. Back From the Future
00:02:57.510 : en:2. Main Titles
00:04:17.632 : en:3. Hill Valley, 2015
00:12:44.388 : en:4. Marty Junior?
00:17:09.111 : en:5. Batter Up!
00:21:16.525 : en:6. The Almanac
00:26:59.659 : en:7. The Future McFlys
00:34:15.428 : en:8. Chicken
00:38:32.476 : en:9. Past Imperfect
00:46:13.061 : en:10. My Father?
00:50:35.449 : en:11. An Alternate 1985
00:55:32.620 : en:12. About That Book
01:01:30.144 : en:13. Back to 1955
01:07:14.196 : en:14. Biff's Lucky Day
01:14:45.939 : en:15. Back to the Dance
01:28:00.608 : en:16. Get That Book!
01:34:43.302 : en:17. Back to Normal?
01:37:46.026 : en:18. A Letter From 1985
01:40:37.239 : en:19. I'm Back!
01:43:25.490 : en:20. End Titles

Назад в будущее 3 / Back To The Future Part III

Назад в будущее 3
Back To The Future Part III

-Год производства: 1990 г.
Страна: USA
Жанр: Фантастика, комедия, приключения
Продолжительность: 01:58:17
Перевод: Профессиональный (полное дублирование) / Профессиональный (многоголосный, закадровый) / Профессиональный (двухголосный, закадровый)
Субтитры: русские(5), английские(2)-Режиссер: Роберт Земекис / Robert Zemeckis-В ролях: Майкл Дж. Фокс (Marty McFly / Seamus McFly), Кристофер Ллойд (Dr. Emmett Brown), Мэри Стинберген (Clara Clayton), Томас Ф. Уилсон (Buford 'Mad Dog' Tannen / Biff Tannen), Лиа Томпсон (Maggie McFly / Lorraine McFly), Элизабет Шу (Jennifer Parker), Джеймс Толкан (Chief Marshal James Strickland), Мэтт Кларк (Chester the Bartender), Даб Тейлор (Saloon Old-Timer #1), Гарри Кэри мл. (Saloon Old-Timer #2), Пэт Баттрем (Saloon Old-Timer #3), Кристофер Уинн (Buford's Gang Member #1 / Needles' Gang Member #1)-Описание: Из газет 1985 года Марти узнает, что доктор Браун погиб еще сто лет назад. Несмотря на просьбы Дока не навещать его в XIX веке, Марти вновь хочет вмешаться в ход событий и на машине времени уносится в 1885 год, навстречу Дикому Западу…
-Качество: BDRip (Исходник - Blu-ray)
Формат: MKV
Видео кодек: х264
Аудио кодек: AC3
Видео: 1280x694, 23.976 fps, x264, 4356 kbit/s
Аудио1: Русский DD 5.1 48 KHz 448 kbps[MVO_FDV]
Аудио2: Русский DD 5.1 48 KHz 448 kbps[Dub]
Аудио3: Русский DD 5.1 48 KHz 448 kbps[DVO_NTV]
Аудио4: Русский DD 5.1 48 KHz 448 kbps[DVO_Glanz]
Аудио5: Русский DD 5.1 48 KHz 448 kbps[DVO_Premier]
Аудио6: Английский DD 5.1 48KHz 448 kbps [Original]
Аудио7: Английский DD 2.0 48 KHz 192 kbps[Comments#1(Q&A)]
Аудио8: Английский DD 2.0 48 KHz 192 kbps[Comments#2(Producers)]
Субтитры №1: Russian; Forced UTF-8
Субтитры №2: Russian; Full[ver.1] UTF-8
Субтитры №3: Russian; Full[ver.2] UTF-8
Субтитры №4: English; Original UTF-8
Субтитры №5: English; Original[SDH] UTF-8
Субтитры №6: Russian; Comments#1[Q&A] UTF-8
Субтитры №7: Russian; Comments#2[Producers] UTF-8-

Скриншоты

Log и MediaInfo

Код: copyText_writeLink('this.parentNode.parentNode.nextSibling.nextSibling');
---[NoImage] raw [info]: 1280x694p 1:1 @ 10000000/417083 fps (cfr)
---[NoImage] x264 [info]: using SAR=1/1
---[NoImage] x264 [info]: using cpu capabilities: MMX2 SSE2Fast SSSE3 FastShuffle SSE4.2
---[NoImage] x264 [info]: profile High, level 4.1
---[NoImage] x264 [info]: frame I:1157 Avg QP:17.08 size:113540 PSNR Mean Y:46.12 U:49.03 V:49.56 Avg:46.84 Global:46.30
---[NoImage] x264 [info]: frame P:36219 Avg QP:18.20 size: 43599 PSNR Mean Y:45.31 U:48.77 V:49.32 Avg:45.84 Global:45.15
---[NoImage] x264 [info]: frame B:132797 Avg QP:20.25 size: 16223 PSNR Mean Y:43.78 U:48.43 V:49.05 Avg:44.81 Global:44.28
---[NoImage] x264 [info]: consecutive B-frames: 1.0% 1.9% 6.9% 22.2% 19.8% 40.3% 3.9% 1.6% 0.9% 0.7% 0.2% 0.2% 0.2% 0.1% 0.2% 0.1% 0.0%
---[NoImage] x264 [info]: mb I I16..4: 5.3% 81.2% 13.6%
---[NoImage] x264 [info]: mb P I16..4: 0.6% 12.6% 1.6% P16..4: 45.0% 27.2% 5.9% 0.3% 0.3% skip: 6.5%
---[NoImage] x264 [info]: mb B I16..4: 0.0% 0.9% 0.1% B16..8: 42.8% 11.8% 3.5% direct: 7.2% skip:33.6% L0:42.7% L1:45.8% BI:11.6%
---[NoImage] x264 [info]: 8x8 transform intra:84.4% inter:60.7%
---[NoImage] x264 [info]: direct mvs spatial:100.0% temporal:0.0%
---[NoImage] x264 [info]: coded y,uvDC,uvAC intra: 93.0% 87.8% 61.2% inter: 31.4% 24.5% 1.4%
---[NoImage] x264 [info]: i16 v,h,dc,p: 47% 15% 7% 30%
---[NoImage] x264 [info]: i8 v,h,dc,ddl,ddr,vr,hd,vl,hu: 11% 7% 6% 10% 14% 14% 13% 12% 12%
---[NoImage] x264 [info]: i4 v,h,dc,ddl,ddr,vr,hd,vl,hu: 12% 5% 2% 10% 16% 16% 14% 12% 12%
---[NoImage] x264 [info]: i8c dc,h,v,p: 41% 24% 19% 16%
---[NoImage] x264 [info]: Weighted P-Frames: Y:3.8%
---[NoImage] x264 [info]: ref P L0: 43.6% 12.5% 19.0% 6.6% 5.8% 4.0% 3.8% 2.2% 2.3% 0.3% 0.0%
---[NoImage] x264 [info]: ref B L0: 76.6% 11.0% 4.9% 2.7% 1.9% 1.6% 0.9% 0.4%
---[NoImage] x264 [info]: ref B L1: 93.9% 6.1%
---[NoImage] x264 [info]: SSIM Mean Y:0.9795966 (16.903db)
---[NoImage] x264 [info]: PSNR Mean Y:44.121 U:48.502 V:49.110 Avg:45.045 Global:44.466 kb/s:4356.12
---[NoImage] encoded 170173 frames, 5.64 fps, 4356.12 kb/s
Video
ID : 1
Format : AVC
Format/Info : Advanced Video Codec
Format profile : [url=mailto:High@L4.1]High@L4.1[/url]
Format settings, CABAC : Yes
Format settings, ReFrames : 9 frames
Codec ID : V_MPEG4/ISO/AVC
Duration : 1h 58mn
Bit rate : 4 213 Kbps
Width : 1 280 pixels
Height : 694 pixels
Display aspect ratio : 16:9
Frame rate : 23.976 fps
Color space : YUV
Chroma subsampling : 4:2:0
Bit depth : 8 bits
Scan type : Progressive
Bits/(Pixel*Frame) : 0.198
Stream size : 3.48 GiB (57%)
Title : Back to the Future III
Writing library : x264 core 107 r1766 f9f0035
Encoding settings : cabac=1 / ref=9 / deblock=1:-2:-2 / analyse=0x3:0x133 / me=umh / subme=9 / psy=1 / psy_rd=1.25:0.00 / mixed_ref=1 / me_range=64 / chroma_me=1 / trellis=2 / 8x8dct=1 / cqm=0 / deadzone=21,11 / fast_pskip=0 / chroma_qp_offset=-2 / threads=9 / sliced_threads=0 / nr=0 / decimate=1 / interlaced=0 / constrained_intra=0 / bframes=16 / b_pyramid=2 / b_adapt=2 / b_bias=0 / direct=3 / weightb=1 / open_gop=0 / weightp=2 / keyint=250 / keyint_min=23 / scenecut=40 / intra_refresh=0 / rc_lookahead=60 / rc=crf / mbtree=0 / crf=18.6 / qcomp=0.60 / qpmin=10 / qpmax=51 / qpstep=4 / vbv_maxrate=50000 / vbv_bufsize=62500 / crf_max=0.0 / ip_ratio=1.40 / pb_ratio=1.30 / aq=1:1.10 / nal_hrd=none
Language : English
Color primaries : BT.709-5, BT.1361, IEC 61966-2-4, SMPTE RP177
Transfer characteristics : BT.709-5, BT.1361
Matrix coefficients : BT.709-5, BT.1361, IEC 61966-2-4 709, SMPTE RP177
Audio #1
ID : 2
Format : AC-3
Format/Info : Audio Coding 3
Mode extension : CM (complete main)
Codec ID : A_AC3
Duration : 1h 58mn
Bit rate mode : Constant
Bit rate : 448 Kbps
Channel(s) : 6 channels
Channel positions : Front: L C R, Side: L R, LFE
Sampling rate : 48.0 KHz
Bit depth : 16 bits
Compression mode : Lossy
Stream size : 379 MiB (6%)
Title : DD 5.1 48 KHz 448 kbps[MVO_FDV]
Language : Russian
Audio #2
ID : 3
Format : AC-3
Format/Info : Audio Coding 3
Mode extension : CM (complete main)
Codec ID : A_AC3
Duration : 1h 58mn
Bit rate mode : Constant
Bit rate : 448 Kbps
Channel(s) : 6 channels
Channel positions : Front: L C R, Side: L R, LFE
Sampling rate : 48.0 KHz
Bit depth : 16 bits
Compression mode : Lossy
Stream size : 379 MiB (6%)
Title : DD 5.1 48 KHz 448 kbps[Dub]
Language : Russian
Audio #3
ID : 4
Format : AC-3
Format/Info : Audio Coding 3
Mode extension : CM (complete main)
Codec ID : A_AC3
Duration : 1h 58mn
Bit rate mode : Constant
Bit rate : 448 Kbps
Channel(s) : 6 channels
Channel positions : Front: L C R, Side: L R, LFE
Sampling rate : 48.0 KHz
Bit depth : 16 bits
Compression mode : Lossy
Stream size : 379 MiB (6%)
Title : DD 5.1 48 KHz 448 kbps[DVO_NTV]
Language : Russian
Audio #4
ID : 5
Format : AC-3
Format/Info : Audio Coding 3
Mode extension : CM (complete main)
Codec ID : A_AC3
Duration : 1h 58mn
Bit rate mode : Constant
Bit rate : 448 Kbps
Channel(s) : 6 channels
Channel positions : Front: L C R, Side: L R, LFE
Sampling rate : 48.0 KHz
Bit depth : 16 bits
Compression mode : Lossy
Stream size : 379 MiB (6%)
Title : DD 5.1 48 KHz 448 kbps[DVO_Glanz]
Language : Russian
Audio #5
ID : 6
Format : AC-3
Format/Info : Audio Coding 3
Mode extension : CM (complete main)
Codec ID : A_AC3
Duration : 1h 58mn
Bit rate mode : Constant
Bit rate : 448 Kbps
Channel(s) : 6 channels
Channel positions : Front: L C R, Side: L R, LFE
Sampling rate : 48.0 KHz
Bit depth : 16 bits
Compression mode : Lossy
Stream size : 379 MiB (6%)
Title : DD 5.1 48 KHz 448 kbps[DVO_Premier]
Language : Russian
Audio #6
ID : 7
Format : AC-3
Format/Info : Audio Coding 3
Mode extension : CM (complete main)
Codec ID : A_AC3
Duration : 1h 58mn
Bit rate mode : Constant
Bit rate : 448 Kbps
Channel(s) : 6 channels
Channel positions : Front: L C R, Side: L R, LFE
Sampling rate : 48.0 KHz
Bit depth : 16 bits
Compression mode : Lossy
Stream size : 379 MiB (6%)
Title : DD 5.1 48 KHz 448 kbps[Original]
Language : English
Audio #7
ID : 8
Format : AC-3
Format/Info : Audio Coding 3
Format profile : Dolby Digital
Mode extension : CM (complete main)
Codec ID : A_AC3
Duration : 1h 58mn
Bit rate mode : Constant
Bit rate : 192 Kbps
Channel(s) : 2 channels
Channel positions : Front: L R
Sampling rate : 48.0 KHz
Bit depth : 16 bits
Compression mode : Lossy
Stream size : 162 MiB (3%)
Title : DD 2.0 48 KHz 192 kbps[Comments#1(Q&A)]
Language : English
Audio #8
ID : 9
Format : AC-3
Format/Info : Audio Coding 3
Format profile : Dolby Digital
Mode extension : CM (complete main)
Codec ID : A_AC3
Duration : 1h 58mn
Bit rate mode : Constant
Bit rate : 192 Kbps
Channel(s) : 2 channels
Channel positions : Front: L R
Sampling rate : 48.0 KHz
Bit depth : 16 bits
Compression mode : Lossy
Stream size : 162 MiB (3%)
Title : DD 2.0 48 KHz 192 kbps[Comments#2(Producers)]
Language : English
Text #1
ID : 10
Format : UTF-8
Codec ID : S_TEXT/UTF8
Codec ID/Info : UTF-8 Plain Text
Title : Forced
Language : Russian
Text #2
ID : 11
Format : UTF-8
Codec ID : S_TEXT/UTF8
Codec ID/Info : UTF-8 Plain Text
Title : Full[ver.1]
Language : Russian
Text #3
ID : 12
Format : UTF-8
Codec ID : S_TEXT/UTF8
Codec ID/Info : UTF-8 Plain Text
Title : Full[ver.2]
Language : Russian
Text #4
ID : 13
Format : UTF-8
Codec ID : S_TEXT/UTF8
Codec ID/Info : UTF-8 Plain Text
Title : Original
Language : English
Text #5
ID : 14
Format : UTF-8
Codec ID : S_TEXT/UTF8
Codec ID/Info : UTF-8 Plain Text
Title : Original[SDH]
Language : English
Text #6
ID : 15
Format : UTF-8
Codec ID : S_TEXT/UTF8
Codec ID/Info : UTF-8 Plain Text
Title : Comments#1[Q&A]
Language : Russian
Text #7
ID : 16
Format : UTF-8
Codec ID : S_TEXT/UTF8
Codec ID/Info : UTF-8 Plain Text
Title : Comments#2[Producers]
Language : Russian
Menu
00:00:00.000 : en:1. Back Again
00:02:50.336 : en:2. Main Titles
00:05:01.134 : en:3. A Letter From Doc
00:12:42.011 : en:4. Doc's Destiny
00:15:49.365 : en:5. Back to 1885
00:22:15.208 : en:6. Clint Eastwood?
00:30:03.593 : en:7. Mad Dog
00:33:16.119 : en:8. Reunited
00:37:44.679 : en:9. Out of Gas
00:41:54.303 : en:10. Clara
00:50:43.331 : en:11. The Town Festival
00:56:58.665 : en:12. Trouble With Tannen
01:06:25.439 : en:13. The Course of the Future
01:16:23.078 : en:14. Late For A Train
01:20:44.840 : en:15. Showdown
01:30:33.678 : en:16. Racing Against Time
01:42:19.758 : en:17. Back to Normal
01:46:07.235 : en:18. Marty's Choice
01:48:07.939 : en:19. Meet the Family
01:51:52.831 : en:20. End Titles

_________________
Показать сообщения:    

Текущее время: Сегодня 07:04

Часовой пояс: GMT



Вы не можете начинать темы
Вы не можете отвечать на сообщения
Вы не можете редактировать свои сообщения
Вы не можете удалять свои сообщения
Вы не можете голосовать в опросах
Вы не можете прикреплять файлы к сообщениям
Вы не можете скачивать файлы