Ивановский Торрент трекер
Яндекс.Погода
 

[Цитировать]
HUNTER

Наживка / Babas bilar- Страна: Швеция
Студия: Filmpool Nord, Kanal 5, Nordisk Filmproduktion
Жанр: Черная комедия, криминал
Год выпуска: 2006
Продолжительность: 01:21:18-Перевод: Профессиональный (многоголосый закадровый)
Cубтитры: шведские, датские, норвежские, финские, английские
Оригинальная аудиодорожка: шведский (эпизодами звучит английская, финская, русская речь)-Режиссер: Рафаэль Эдхольм / Rafael Edholm-В ролях: Андреас Уилсон, Сара Соммерфельд, Хассан Бриджани, Георги Стайков, Ярмо Мякинен, Петер Францен, Ханну Кивиао, Гёран Форсмарк, Йоаким Андерссон, Лаура Малмиваара-Описание: Йойо и Ансо любят друг друга, но их отношения подвергаются серьёзному испытанию, когда Йойо берёт деньги из семейной кассы, чтобы купить запчасть для своей машины. Чтобы возместить расходы, он нанимается на работу к своему тестю Баба. Этот Баба — хозяин гаража, мастер разных тёмных делишек, и Йойо приходится ими заниматься. Русская девушка Елена хочет продать свою машину, роскошный чёрный кадиллак 1973 г — раритет. Но Йойо не знает, что настоящий хозяин машины — муж Елены бандит Иван, помощники которого три придурковатых финна «фаршируют» рыбу пакетиками с наркотиками и в этом виде сбывают мелким торговцам, что приносит огромную прибыль. Баба покупает у Елены машину и продает шикарную тачку коллекционеру в Норвегию. Счастливый обладатель «прекрасной американки» даже не подозревает, что на него началась охота. Ведь машина не просто дорогая, она еще начинена миллионами долларов, которые спрятаны в сидениях автомобиля.-Доп. информация:
- оригинальную звуковую дорожку (DTS) заменил на русскую многоголоску (кнопка в Меню - "DTS");
- русская звуковая дорожка отсюда - спасибо сhizhik;
- за исходный DVD9 спасибо edus67
Бонусы: дополнительные материалы включают фильм о съемках, трейлеры
Меню: есть, язык шведский / английский, статичное, озвученное-Sample | IMDB | КиноПоиск-Тип релиза: DVD9 (Custom)
Контейнер: DVD-Video-Видео: PAL 16:9 (720x576) VBR Auto Letterboxed
Аудио 1: AC3, 3/2+LFE ch, 448Kbps, Delay 4877632 mSec [Original_Sv]
Аудио 2: AC3, 2/0 ch, 192Kbps, Delay 4877632 mSec [Russian_MVO]-Релиз группы: -

Используемое ПО

1. BeLight - mp3 - wav;
2. Adobe Audition - синхронизация;
3. Minnetonka Audio Software - wav - ac3;

4. PgcDemux - разборка оригинального DVD;
5. MuxMan - сборка DVD;
6. DVDReMake Pro - финальный проект.

DVDInfo

Title:
Size: 5.72 Gb ( 5 997 292 KBytes ) - DVD-9
Enabled regions: 1, 2, 3, 4, 5, 6, 7, 8
VTS_01 :
Play Length: 00:00:11+00:05:53+00:08:14+00:00:01
Video: PAL 16:9 (720x576) VBR, Auto Letterboxed
Audio:
English (Dolby AC3, 2 ch)
Subtitles:
Svenska
Svenska
Dansk
Norsk
Suomi
English
VTS_02 :
Play Length: 01:21:18
Video: PAL 16:9 (720x576) VBR, Auto Letterboxed
Audio:
Svenska (Dolby AC3, 6 ch)
Russian (Dolby AC3, 2 ch)
Subtitles:
Svenska
Svenska
Dansk
Norsk
Suomi
English
VTS_03 :
Play Length: 00:20:59
Video: PAL 4:3 (720x576) VBR
Audio:
Svenska (Dolby AC3, 2 ch)
Subtitles:
Svenska
Svenska
Dansk
Norsk
Suomi
English
Menu Video:
PAL 16:9 (720x576) VBR
Auto Letterboxed
Menu Audio:
Not specified (Dolby AC3, 2 ch)
Menu Subtitles:
Not specified
Menu English Language Unit :
Root Menu
Subpicture Menu
Audio Menu
Chapter (PTT) Menu

MediaInfo

General
Complete name : D:\Мои релизы\Babas bilar [DVD9]\VIDEO_TS\VIDEO_TS.BUP
Format : DVD Video
Format profile : Menu
File size : 14.0 KiB
Video
ID : 224 (0xE0)
Format : MPEG Video
Format version : Version 2
Bit rate mode : Variable
Width : 720 pixels
Height : 576 pixels
Display aspect ratio : 16:9
Frame rate : 25.000 fps
Standard : PAL
Compression mode : Lossy
Audio
Format : AC-3
Format/Info : Audio Coding 3
Channel(s) : 2 channels
Sampling rate : 48.0 KHz
Compression mode : Lossy
Text
Format : RLE
Format/Info : Run-length encoding
Bit depth : 2 bits
General
Complete name : D:\Мои релизы\Babas bilar [DVD9]\VIDEO_TS\VIDEO_TS.IFO
Format : DVD Video
Format profile : Menu
File size : 14.0 KiB
Video
ID : 224 (0xE0)
Format : MPEG Video
Format version : Version 2
Bit rate mode : Variable
Width : 720 pixels
Height : 576 pixels
Display aspect ratio : 16:9
Frame rate : 25.000 fps
Standard : PAL
Compression mode : Lossy
Audio
Format : AC-3
Format/Info : Audio Coding 3
Channel(s) : 2 channels
Sampling rate : 48.0 KHz
Compression mode : Lossy
Text
Format : RLE
Format/Info : Run-length encoding
Bit depth : 2 bits
General
Complete name : D:\Мои релизы\Babas bilar [DVD9]\VIDEO_TS\VIDEO_TS.VOB
Format : MPEG-PS
File size : 8.05 MiB
Duration : 45s 73ms
Overall bit rate : 1 498 Kbps
Video
ID : 224 (0xE0)
Format : MPEG Video
Format version : Version 2
Format profile : Main@Main
Format settings, BVOP : Yes
Format settings, Matrix : Default
Format settings, GOP : M=2, N=12
Duration : 13s 40ms
Bit rate mode : Variable
Bit rate : 1 277 Kbps
Nominal bit rate : 9 800 Kbps
Width : 720 pixels
Height : 576 pixels
Display aspect ratio : 16:9
Frame rate : 25.000 fps
Standard : PAL
Color space : YUV
Chroma subsampling : 4:2:0
Bit depth : 8 bits
Scan type : Progressive
Scan order : Top Field First
Compression mode : Lossy
Bits/(Pixel*Frame) : 0.123
Stream size : 1.98 MiB (25%)
Audio
ID : 128 (0x80)
Format : AC-3
Format/Info : Audio Coding 3
Mode extension : CM (complete main)
Duration : 45s 73ms
Bit rate mode : Constant
Bit rate : 192 Kbps
Channel(s) : 2 channels
Channel positions : Front: L R
Sampling rate : 48.0 KHz
Bit depth : 16 bits
Compression mode : Lossy
Stream size : 1.03 MiB (13%)
Text #1
ID : 32 (0x20)
Format : RLE
Format/Info : Run-length encoding
Text #2
ID : 33 (0x21)
Format : RLE
Format/Info : Run-length encoding
Menu
General
Complete name : D:\Мои релизы\Babas bilar [DVD9]\VIDEO_TS\VTS_01_0.BUP
Format : DVD Video
Format profile : Program
File size : 22.0 KiB
Duration : 11s 360ms
Overall bit rate : 15.9 Kbps
Video
ID : 224 (0xE0)
Format : MPEG Video
Format version : Version 2
Duration : 11s 360ms
Bit rate mode : Variable
Width : 720 pixels
Height : 576 pixels
Display aspect ratio : 16:9
Frame rate : 25.000 fps
Standard : PAL
Compression mode : Lossy
Audio
ID : 128 (0x80)
Format : AC-3
Format/Info : Audio Coding 3
Duration : 11s 360ms
Channel(s) : 2 channels
Sampling rate : 48.0 KHz
Compression mode : Lossy
Language : English
Text #1
ID : 32 (0x20)
Format : RLE
Format/Info : Run-length encoding
Bit depth : 2 bits
Language : Swedish
Text #2
ID : 33 (0x21)
Format : RLE
Format/Info : Run-length encoding
Bit depth : 2 bits
Language : Swedish
Text #3
ID : 34 (0x22)
Format : RLE
Format/Info : Run-length encoding
Bit depth : 2 bits
Language : Danish
Text #4
ID : 35 (0x23)
Format : RLE
Format/Info : Run-length encoding
Bit depth : 2 bits
Language : Norwegian
Text #5
ID : 32 (0x20)
Format : RLE
Format/Info : Run-length encoding
Bit depth : 2 bits
Language : Finnish
Text #6
ID : 32 (0x20)
Format : RLE
Format/Info : Run-length encoding
Bit depth : 2 bits
Language : English
Menu #1
Duration : 400ms
00:00:00.000 : Chapter 1
List (Audio) : 0
List (Subtitles 4/3) : 0 / 0 / 0 / 0 / 0 / 0
List (Subtitles Wide) : 0 / 1 / 2 / 3 / 0 / 0
List (Subtitles Letterbox) : 0 / 1 / 2 / 3 / 0 / 0
List (Subtitles Pan&Scan) : 0 / 0 / 0 / 0 / 0 / 0
Menu #2
Duration : 11s 360ms
00:00:00.000 : Chapter 1
00:00:00.400 : Chapter 2
List (Audio) : 0
List (Subtitles 4/3) : 0 / 0 / 0 / 0 / 0 / 0
List (Subtitles Wide) : 0 / 1 / 2 / 3 / 4 / 5
List (Subtitles Letterbox) : 0 / 1 / 2 / 3 / 4 / 5
List (Subtitles Pan&Scan) : 0 / 0 / 0 / 0 / 0 / 0
Menu #3
Duration : 400ms
00:00:00.000 : Chapter 1
List (Audio) : 0
List (Subtitles 4/3) : 0 / 0 / 0 / 0 / 0 / 0
List (Subtitles Wide) : 0 / 0 / 0 / 0 / 0 / 0
List (Subtitles Letterbox) : 0 / 0 / 0 / 0 / 0 / 0
List (Subtitles Pan&Scan) : 0 / 0 / 0 / 0 / 0 / 0
General
Complete name : D:\Мои релизы\Babas bilar [DVD9]\VIDEO_TS\VTS_01_0.IFO
Format : DVD Video
Format profile : Program
File size : 22.0 KiB
Duration : 11s 360ms
Overall bit rate : 15.9 Kbps
Video
ID : 224 (0xE0)
Format : MPEG Video
Format version : Version 2
Duration : 11s 360ms
Bit rate mode : Variable
Width : 720 pixels
Height : 576 pixels
Display aspect ratio : 16:9
Frame rate : 25.000 fps
Standard : PAL
Compression mode : Lossy
Audio
ID : 128 (0x80)
Format : AC-3
Format/Info : Audio Coding 3
Duration : 11s 360ms
Channel(s) : 2 channels
Sampling rate : 48.0 KHz
Compression mode : Lossy
Language : English
Text #1
ID : 32 (0x20)
Format : RLE
Format/Info : Run-length encoding
Bit depth : 2 bits
Language : Swedish
Text #2
ID : 33 (0x21)
Format : RLE
Format/Info : Run-length encoding
Bit depth : 2 bits
Language : Swedish
Text #3
ID : 34 (0x22)
Format : RLE
Format/Info : Run-length encoding
Bit depth : 2 bits
Language : Danish
Text #4
ID : 35 (0x23)
Format : RLE
Format/Info : Run-length encoding
Bit depth : 2 bits
Language : Norwegian
Text #5
ID : 32 (0x20)
Format : RLE
Format/Info : Run-length encoding
Bit depth : 2 bits
Language : Finnish
Text #6
ID : 32 (0x20)
Format : RLE
Format/Info : Run-length encoding
Bit depth : 2 bits
Language : English
Menu #1
Duration : 400ms
00:00:00.000 : Chapter 1
List (Audio) : 0
List (Subtitles 4/3) : 0 / 0 / 0 / 0 / 0 / 0
List (Subtitles Wide) : 0 / 1 / 2 / 3 / 0 / 0
List (Subtitles Letterbox) : 0 / 1 / 2 / 3 / 0 / 0
List (Subtitles Pan&Scan) : 0 / 0 / 0 / 0 / 0 / 0
Menu #2
Duration : 11s 360ms
00:00:00.000 : Chapter 1
00:00:00.400 : Chapter 2
List (Audio) : 0
List (Subtitles 4/3) : 0 / 0 / 0 / 0 / 0 / 0
List (Subtitles Wide) : 0 / 1 / 2 / 3 / 4 / 5
List (Subtitles Letterbox) : 0 / 1 / 2 / 3 / 4 / 5
List (Subtitles Pan&Scan) : 0 / 0 / 0 / 0 / 0 / 0
Menu #3
Duration : 400ms
00:00:00.000 : Chapter 1
List (Audio) : 0
List (Subtitles 4/3) : 0 / 0 / 0 / 0 / 0 / 0
List (Subtitles Wide) : 0 / 0 / 0 / 0 / 0 / 0
List (Subtitles Letterbox) : 0 / 0 / 0 / 0 / 0 / 0
List (Subtitles Pan&Scan) : 0 / 0 / 0 / 0 / 0 / 0
General
Complete name : D:\Мои релизы\Babas bilar [DVD9]\VIDEO_TS\VTS_01_1.VOB
Format : MPEG-PS
File size : 314 MiB
Duration : 1mn 55s
Overall bit rate : 22.9 Mbps
Writing library : encoded by TMPGEnc (ver. 2.524.63.181)
Video
ID : 224 (0xE0)
Format : MPEG Video
Format version : Version 2
Format profile : Main@Main
Format settings, BVOP : Yes
Format settings, Matrix : Default
Duration : 1mn 55s
Bit rate mode : Variable
Bit rate : 22.2 Mbps
Width : 720 pixels
Height : 576 pixels
Display aspect ratio : 16:9
Frame rate : 25.000 fps
Standard : PAL
Color space : YUV
Chroma subsampling : 4:2:0
Bit depth : 8 bits
Compression mode : Lossy
Bits/(Pixel*Frame) : 2.144
Stream size : 305 MiB (97%)
Writing library : TMPGEnc 2.524.63.181
Audio
ID : 128 (0x80)
Format : AC-3
Format/Info : Audio Coding 3
Mode extension : CM (complete main)
Duration : 1mn 45s
Bit rate mode : Constant
Bit rate : 192 Kbps
Channel(s) : 2 channels
Channel positions : Front: L R
Sampling rate : 48.0 KHz
Bit depth : 16 bits
Compression mode : Lossy
Video delay : 9s 894ms
Stream size : 2.41 MiB (1%)
Text #1
ID : 32 (0x20)
Format : RLE
Format/Info : Run-length encoding
Video delay : 10s 86ms
Text #2
ID : 33 (0x21)
Format : RLE
Format/Info : Run-length encoding
Video delay : 10s 86ms
Text #3
ID : 34 (0x22)
Format : RLE
Format/Info : Run-length encoding
Video delay : 10s 86ms
Text #4
ID : 35 (0x23)
Format : RLE
Format/Info : Run-length encoding
Video delay : 10s 86ms
Text #5
ID : 36 (0x24)
Format : RLE
Format/Info : Run-length encoding
Video delay : 10s 86ms
Text #6
ID : 37 (0x25)
Format : RLE
Format/Info : Run-length encoding
Video delay : 10s 86ms
Menu
General
Complete name : D:\Мои релизы\Babas bilar [DVD9]\VIDEO_TS\VTS_02_0.BUP
Format : DVD Video
Format profile : Program
File size : 68.0 KiB
Duration : 1h 21mn
Overall bit rate : 114 bps
Video
ID : 224 (0xE0)
Format : MPEG Video
Format version : Version 2
Duration : 1h 21mn
Bit rate mode : Variable
Width : 720 pixels
Height : 576 pixels
Display aspect ratio : 16:9
Frame rate : 25.000 fps
Standard : PAL
Compression mode : Lossy
Audio #1
ID : 128 (0x80)
Format : AC-3
Format/Info : Audio Coding 3
Duration : 1h 21mn
Channel(s) : 6 channels
Sampling rate : 48.0 KHz
Compression mode : Lossy
Language : Swedish
Audio #2
ID : 129 (0x81)
Format : AC-3
Format/Info : Audio Coding 3
Duration : 1h 21mn
Channel(s) : 2 channels
Sampling rate : 48.0 KHz
Compression mode : Lossy
Language : Russian
Text #1
ID : 32 (0x20)
Format : RLE
Format/Info : Run-length encoding
Bit depth : 2 bits
Language : Swedish
Text #2
ID : 33 (0x21)
Format : RLE
Format/Info : Run-length encoding
Bit depth : 2 bits
Language : Swedish
Text #3
ID : 34 (0x22)
Format : RLE
Format/Info : Run-length encoding
Bit depth : 2 bits
Language : Danish
Text #4
ID : 35 (0x23)
Format : RLE
Format/Info : Run-length encoding
Bit depth : 2 bits
Language : Norwegian
Text #5
ID : 36 (0x24)
Format : RLE
Format/Info : Run-length encoding
Bit depth : 2 bits
Language : Finnish
Text #6
ID : 37 (0x25)
Format : RLE
Format/Info : Run-length encoding
Bit depth : 2 bits
Language : English
Menu #1
Duration : 1h 21mn
00:00:00.000 : Chapter 1
00:06:06.600 : Chapter 2
00:12:55.320 : Chapter 3
00:21:20.240 : Chapter 4
00:28:26.640 : Chapter 5
00:34:44.160 : Chapter 6
00:39:48.360 : Chapter 7
00:46:41.240 : Chapter 8
00:53:47.640 : Chapter 9
01:00:56.120 : Chapter 10
01:10:22.400 : Chapter 11
01:17:37.640 : Chapter 12
01:21:17.800 : Chapter 13
List (Audio) : 0 / 1
List (Subtitles 4/3) : 0 / 0 / 0 / 0 / 0 / 0
List (Subtitles Wide) : 0 / 1 / 2 / 3 / 4 / 5
List (Subtitles Letterbox) : 0 / 1 / 2 / 3 / 4 / 5
List (Subtitles Pan&Scan) : 0 / 0 / 0 / 0 / 0 / 0
Menu #2
Duration : 400ms
00:00:00.000 : Chapter 1
List (Audio) : 0 / 1
List (Subtitles 4/3) : 0 / 0 / 0 / 0 / 0 / 0
List (Subtitles Wide) : 0 / 1 / 2 / 0 / 0 / 0
List (Subtitles Letterbox) : 0 / 0 / 0 / 0 / 0 / 0
List (Subtitles Pan&Scan) : 0 / 0 / 0 / 0 / 0 / 0
General
Complete name : D:\Мои релизы\Babas bilar [DVD9]\VIDEO_TS\VTS_02_0.IFO
Format : DVD Video
Format profile : Program
File size : 68.0 KiB
Duration : 1h 21mn
Overall bit rate : 114 bps
Video
ID : 224 (0xE0)
Format : MPEG Video
Format version : Version 2
Duration : 1h 21mn
Bit rate mode : Variable
Width : 720 pixels
Height : 576 pixels
Display aspect ratio : 16:9
Frame rate : 25.000 fps
Standard : PAL
Compression mode : Lossy
Audio #1
ID : 128 (0x80)
Format : AC-3
Format/Info : Audio Coding 3
Duration : 1h 21mn
Channel(s) : 6 channels
Sampling rate : 48.0 KHz
Compression mode : Lossy
Language : Swedish
Audio #2
ID : 129 (0x81)
Format : AC-3
Format/Info : Audio Coding 3
Duration : 1h 21mn
Channel(s) : 2 channels
Sampling rate : 48.0 KHz
Compression mode : Lossy
Language : Russian
Text #1
ID : 32 (0x20)
Format : RLE
Format/Info : Run-length encoding
Bit depth : 2 bits
Language : Swedish
Text #2
ID : 33 (0x21)
Format : RLE
Format/Info : Run-length encoding
Bit depth : 2 bits
Language : Swedish
Text #3
ID : 34 (0x22)
Format : RLE
Format/Info : Run-length encoding
Bit depth : 2 bits
Language : Danish
Text #4
ID : 35 (0x23)
Format : RLE
Format/Info : Run-length encoding
Bit depth : 2 bits
Language : Norwegian
Text #5
ID : 36 (0x24)
Format : RLE
Format/Info : Run-length encoding
Bit depth : 2 bits
Language : Finnish
Text #6
ID : 37 (0x25)
Format : RLE
Format/Info : Run-length encoding
Bit depth : 2 bits
Language : English
Menu #1
Duration : 1h 21mn
00:00:00.000 : Chapter 1
00:06:06.600 : Chapter 2
00:12:55.320 : Chapter 3
00:21:20.240 : Chapter 4
00:28:26.640 : Chapter 5
00:34:44.160 : Chapter 6
00:39:48.360 : Chapter 7
00:46:41.240 : Chapter 8
00:53:47.640 : Chapter 9
01:00:56.120 : Chapter 10
01:10:22.400 : Chapter 11
01:17:37.640 : Chapter 12
01:21:17.800 : Chapter 13
List (Audio) : 0 / 1
List (Subtitles 4/3) : 0 / 0 / 0 / 0 / 0 / 0
List (Subtitles Wide) : 0 / 1 / 2 / 3 / 4 / 5
List (Subtitles Letterbox) : 0 / 1 / 2 / 3 / 4 / 5
List (Subtitles Pan&Scan) : 0 / 0 / 0 / 0 / 0 / 0
Menu #2
Duration : 400ms
00:00:00.000 : Chapter 1
List (Audio) : 0 / 1
List (Subtitles 4/3) : 0 / 0 / 0 / 0 / 0 / 0
List (Subtitles Wide) : 0 / 1 / 2 / 0 / 0 / 0
List (Subtitles Letterbox) : 0 / 0 / 0 / 0 / 0 / 0
List (Subtitles Pan&Scan) : 0 / 0 / 0 / 0 / 0 / 0
General
Complete name : D:\Мои релизы\Babas bilar [DVD9]\VIDEO_TS\VTS_02_0.VOB
Format : MPEG-PS
File size : 190 MiB
Duration : 45s 24ms
Overall bit rate : 35.4 Mbps
Video
ID : 224 (0xE0)
Format : MPEG Video
Format version : Version 2
Format profile : Main@Main
Format settings, BVOP : No
Format settings, Matrix : Default
Format settings, GOP : N=1
Duration : 80ms
Bit rate mode : Constant
Bit rate : 34.5 Mbps
Nominal bit rate : 8 000 Kbps
Width : 720 pixels
Height : 576 pixels
Display aspect ratio : 16:9
Frame rate : 25.000 fps
Standard : PAL
Color space : YUV
Chroma subsampling : 4:2:0
Bit depth : 8 bits
Scan type : Progressive
Scan order : Top Field First
Compression mode : Lossy
Bits/(Pixel*Frame) : 3.332
Stream size : 337 KiB (0%)
Audio
ID : 128 (0x80)
Format : AC-3
Format/Info : Audio Coding 3
Mode extension : CM (complete main)
Duration : 45s 24ms
Bit rate mode : Constant
Bit rate : 192 Kbps
Channel(s) : 2 channels
Channel positions : Front: L R
Sampling rate : 48.0 KHz
Bit depth : 16 bits
Compression mode : Lossy
Stream size : 1.03 MiB (1%)
Text #1
ID : 32 (0x20)
Format : RLE
Format/Info : Run-length encoding
Text #2
ID : 33 (0x21)
Format : RLE
Format/Info : Run-length encoding
Menu
General
Complete name : D:\Мои релизы\Babas bilar [DVD9]\VIDEO_TS\VTS_02_1.VOB
Format : MPEG-PS
File size : 1 024 MiB
Overall bit rate : 0
Writing library : encoded by TMPGEnc (ver. 2.524.63.181)
Video
ID : 224 (0xE0)
Format : MPEG Video
Format version : Version 2
Format profile : Main@Main
Format settings, BVOP : Yes
Format settings, Matrix : Default
Duration : 19mn 36s
Bit rate mode : Variable
Width : 720 pixels
Height : 576 pixels
Display aspect ratio : 2.35:1
Frame rate : 25.000 fps
Standard : PAL
Color space : YUV
Chroma subsampling : 4:2:0
Bit depth : 8 bits
Compression mode : Lossy
Writing library : TMPGEnc 2.524.63.181
Audio #1
ID : 128 (0x80)
Format : AC-3
Format/Info : Audio Coding 3
Mode extension : CM (complete main)
Duration : -1h 1mn
Bit rate mode : Constant
Bit rate : 448 Kbps
Channel(s) : 6 channels
Channel positions : Front: L C R, Side: L R, LFE
Sampling rate : 48.0 KHz
Bit depth : 16 bits
Compression mode : Lossy
Video delay : 1h 21mn
Stream size : 2.05 ?iB
Audio #2
ID : 129 (0x81)
Format : AC-3
Format/Info : Audio Coding 3
Mode extension : CM (complete main)
Duration : -1h 1mn
Bit rate mode : Constant
Bit rate : 192 Kbps
Channel(s) : 2 channels
Channel positions : Front: L R
Sampling rate : 48.0 KHz
Bit depth : 16 bits
Compression mode : Lossy
Video delay : 1h 21mn
Stream size : 2.05 ?iB
Text #1
ID : 32 (0x20)
Format : RLE
Format/Info : Run-length encoding
Text #2
ID : 33 (0x21)
Format : RLE
Format/Info : Run-length encoding
Text #3
ID : 34 (0x22)
Format : RLE
Format/Info : Run-length encoding
Text #4
ID : 35 (0x23)
Format : RLE
Format/Info : Run-length encoding
Text #5
ID : 36 (0x24)
Format : RLE
Format/Info : Run-length encoding
Text #6
ID : 37 (0x25)
Format : RLE
Format/Info : Run-length encoding
Menu
General
Complete name : D:\Мои релизы\Babas bilar [DVD9]\VIDEO_TS\VTS_02_2.VOB
Format : MPEG-PS
File size : 1 024 MiB
Duration : 19mn 36s
Overall bit rate : 7 301 Kbps
Video
ID : 224 (0xE0)
Format : MPEG Video
Format version : Version 2
Format profile : Main@Main
Format settings, BVOP : Yes
Format settings, Matrix : Default
Format settings, GOP : M=3, N=13
Duration : 19mn 36s
Bit rate mode : Variable
Bit rate : 6 500 Kbps
Width : 720 pixels
Height : 576 pixels
Display aspect ratio : 2.35:1
Frame rate : 25.000 fps
Standard : PAL
Color space : YUV
Chroma subsampling : 4:2:0
Bit depth : 8 bits
Scan type : Interlaced
Scan order : Top Field First
Compression mode : Lossy
Bits/(Pixel*Frame) : 0.627
Stream size : 914 MiB (89%)
Audio #1
ID : 128 (0x80)
Format : AC-3
Format/Info : Audio Coding 3
Mode extension : CM (complete main)
Duration : 19mn 36s
Bit rate mode : Constant
Bit rate : 448 Kbps
Channel(s) : 6 channels
Channel positions : Front: L C R, Side: L R, LFE
Sampling rate : 48.0 KHz
Bit depth : 16 bits
Compression mode : Lossy
Video delay : -368ms
Stream size : 62.8 MiB (6%)
Audio #2
ID : 129 (0x81)
Format : AC-3
Format/Info : Audio Coding 3
Mode extension : CM (complete main)
Duration : 19mn 36s
Bit rate mode : Constant
Bit rate : 192 Kbps
Channel(s) : 2 channels
Channel positions : Front: L R
Sampling rate : 48.0 KHz
Bit depth : 16 bits
Compression mode : Lossy
Video delay : -304ms
Stream size : 26.9 MiB (3%)
Text #1
ID : 32 (0x20)
Format : RLE
Format/Info : Run-length encoding
Video delay : 1s 960ms
Text #2
ID : 33 (0x21)
Format : RLE
Format/Info : Run-length encoding
Video delay : 1s 960ms
Text #3
ID : 34 (0x22)
Format : RLE
Format/Info : Run-length encoding
Video delay : 1s 960ms
Text #4
ID : 35 (0x23)
Format : RLE
Format/Info : Run-length encoding
Video delay : 1s 960ms
Text #5
ID : 36 (0x24)
Format : RLE
Format/Info : Run-length encoding
Video delay : 1s 960ms
Text #6
ID : 37 (0x25)
Format : RLE
Format/Info : Run-length encoding
Duration : 19mn 32s
Video delay : 1s 880ms
Menu
General
Complete name : D:\Мои релизы\Babas bilar [DVD9]\VIDEO_TS\VTS_02_3.VOB
Format : MPEG-PS
File size : 1 024 MiB
Duration : 19mn 35s
Overall bit rate : 7 308 Kbps
Video
ID : 224 (0xE0)
Format : MPEG Video
Format version : Version 2
Format profile : Main@Main
Format settings, BVOP : Yes
Format settings, Matrix : Default
Format settings, GOP : M=3, N=13
Duration : 19mn 35s
Bit rate mode : Variable
Bit rate : 6 500 Kbps
Width : 720 pixels
Height : 576 pixels
Display aspect ratio : 2.35:1
Frame rate : 25.000 fps
Standard : PAL
Color space : YUV
Chroma subsampling : 4:2:0
Bit depth : 8 bits
Scan type : Interlaced
Scan order : Top Field First
Compression mode : Lossy
Bits/(Pixel*Frame) : 0.627
Stream size : 914 MiB (89%)
Audio #1
ID : 128 (0x80)
Format : AC-3
Format/Info : Audio Coding 3
Mode extension : CM (complete main)
Duration : 19mn 35s
Bit rate mode : Constant
Bit rate : 448 Kbps
Channel(s) : 6 channels
Channel positions : Front: L C R, Side: L R, LFE
Sampling rate : 48.0 KHz
Bit depth : 16 bits
Compression mode : Lossy
Video delay : -648ms
Stream size : 62.8 MiB (6%)
Audio #2
ID : 129 (0x81)
Format : AC-3
Format/Info : Audio Coding 3
Mode extension : CM (complete main)
Duration : 19mn 35s
Bit rate mode : Constant
Bit rate : 192 Kbps
Channel(s) : 2 channels
Channel positions : Front: L R
Sampling rate : 48.0 KHz
Bit depth : 16 bits
Compression mode : Lossy
Video delay : -552ms
Stream size : 26.9 MiB (3%)
Text #1
ID : 33 (0x21)
Format : RLE
Format/Info : Run-length encoding
Video delay : 640ms
Text #2
ID : 34 (0x22)
Format : RLE
Format/Info : Run-length encoding
Video delay : 640ms
Text #3
ID : 35 (0x23)
Format : RLE
Format/Info : Run-length encoding
Video delay : 640ms
Text #4
ID : 36 (0x24)
Format : RLE
Format/Info : Run-length encoding
Video delay : 640ms
Text #5
ID : 37 (0x25)
Format : RLE
Format/Info : Run-length encoding
Video delay : 560ms
Menu
General
Complete name : D:\Мои релизы\Babas bilar [DVD9]\VIDEO_TS\VTS_02_4.VOB
Format : MPEG-PS
File size : 1 024 MiB
Duration : 19mn 37s
Overall bit rate : 7 298 Kbps
Video
ID : 224 (0xE0)
Format : MPEG Video
Format version : Version 2
Format profile : Main@Main
Format settings, BVOP : Yes
Format settings, Matrix : Default
Format settings, GOP : M=3, N=13
Duration : 19mn 36s
Bit rate mode : Variable
Bit rate : 6 500 Kbps
Width : 720 pixels
Height : 576 pixels
Display aspect ratio : 2.35:1
Frame rate : 25.000 fps
Standard : PAL
Color space : YUV
Chroma subsampling : 4:2:0
Bit depth : 8 bits
Scan type : Interlaced
Scan order : Top Field First
Compression mode : Lossy
Bits/(Pixel*Frame) : 0.627
Stream size : 914 MiB (89%)
Audio #1
ID : 128 (0x80)
Format : AC-3
Format/Info : Audio Coding 3
Mode extension : CM (complete main)
Duration : 19mn 37s
Bit rate mode : Constant
Bit rate : 448 Kbps
Channel(s) : 6 channels
Channel positions : Front: L C R, Side: L R, LFE
Sampling rate : 48.0 KHz
Bit depth : 16 bits
Compression mode : Lossy
Video delay : -392ms
Stream size : 62.9 MiB (6%)
Audio #2
ID : 129 (0x81)
Format : AC-3
Format/Info : Audio Coding 3
Mode extension : CM (complete main)
Duration : 19mn 37s
Bit rate mode : Constant
Bit rate : 192 Kbps
Channel(s) : 2 channels
Channel positions : Front: L R
Sampling rate : 48.0 KHz
Bit depth : 16 bits
Compression mode : Lossy
Video delay : -360ms
Stream size : 26.9 MiB (3%)
Menu
General
Complete name : D:\Мои релизы\Babas bilar [DVD9]\VIDEO_TS\VTS_02_5.VOB
Format : MPEG-PS
File size : 150 MiB
Duration : 2mn 52s
Overall bit rate : 7 270 Kbps
Video
ID : 224 (0xE0)
Format : MPEG Video
Format version : Version 2
Format profile : Main@Main
Format settings, BVOP : Yes
Format settings, Matrix : Default
Format settings, GOP : M=3, N=13
Duration : 2mn 52s
Bit rate mode : Variable
Bit rate : 6 500 Kbps
Width : 720 pixels
Height : 576 pixels
Display aspect ratio : 2.35:1
Frame rate : 25.000 fps
Standard : PAL
Color space : YUV
Chroma subsampling : 4:2:0
Bit depth : 8 bits
Scan type : Interlaced
Scan order : Top Field First
Compression mode : Lossy
Bits/(Pixel*Frame) : 0.627
Stream size : 133 MiB (89%)
Audio #1
ID : 128 (0x80)
Format : AC-3
Format/Info : Audio Coding 3
Mode extension : CM (complete main)
Duration : 2mn 52s
Bit rate mode : Constant
Bit rate : 448 Kbps
Channel(s) : 6 channels
Channel positions : Front: L C R, Side: L R, LFE
Sampling rate : 48.0 KHz
Bit depth : 16 bits
Compression mode : Lossy
Video delay : -616ms
Stream size : 9.23 MiB (6%)
Audio #2
ID : 129 (0x81)
Format : AC-3
Format/Info : Audio Coding 3
Mode extension : CM (complete main)
Duration : 2mn 52s
Bit rate mode : Constant
Bit rate : 192 Kbps
Channel(s) : 2 channels
Channel positions : Front: L R
Sampling rate : 48.0 KHz
Bit depth : 16 bits
Compression mode : Lossy
Video delay : -552ms
Stream size : 3.95 MiB (3%)
Text #1
ID : 32 (0x20)
Format : RLE
Format/Info : Run-length encoding
Text #2
ID : 33 (0x21)
Format : RLE
Format/Info : Run-length encoding
Menu
General
Complete name : D:\Мои релизы\Babas bilar [DVD9]\VIDEO_TS\VTS_03_0.BUP
Format : DVD Video
Format profile : Program
File size : 22.0 KiB
Duration : 20mn 59s
Overall bit rate : 143 bps
Video
ID : 224 (0xE0)
Format : MPEG Video
Format version : Version 2
Duration : 20mn 59s
Bit rate mode : Variable
Width : 720 pixels
Height : 576 pixels
Display aspect ratio : 4:3
Frame rate : 25.000 fps
Standard : PAL
Compression mode : Lossy
Audio
ID : 128 (0x80)
Format : AC-3
Format/Info : Audio Coding 3
Duration : 20mn 59s
Channel(s) : 2 channels
Sampling rate : 48.0 KHz
Compression mode : Lossy
Language : Swedish
Text #1
ID : 32 (0x20)
Format : RLE
Format/Info : Run-length encoding
Bit depth : 2 bits
Language : Swedish
Text #2
ID : 32 (0x20)
Format : RLE
Format/Info : Run-length encoding
Bit depth : 2 bits
Language : Swedish
Text #3
ID : 32 (0x20)
Format : RLE
Format/Info : Run-length encoding
Bit depth : 2 bits
Language : Danish
Text #4
ID : 32 (0x20)
Format : RLE
Format/Info : Run-length encoding
Bit depth : 2 bits
Language : Norwegian
Text #5
ID : 32 (0x20)
Format : RLE
Format/Info : Run-length encoding
Bit depth : 2 bits
Language : Finnish
Text #6
ID : 32 (0x20)
Format : RLE
Format/Info : Run-length encoding
Bit depth : 2 bits
Language : English
Menu #1
Duration : 20mn 59s
00:00:00.000 : Chapter 1
00:00:00.400 : Chapter 2
00:02:23.400 : Chapter 3
00:07:13.040 : Chapter 4
00:09:04.840 : Chapter 5
00:10:57.680 : Chapter 6
00:11:56.960 : Chapter 7
00:20:59.400 : Chapter 8
List (Audio) : 0
List (Subtitles 4/3) : 0 / 1 / 2 / 3 / 4 / 5
List (Subtitles Wide) : 0 / 0 / 0 / 0 / 0 / 0
List (Subtitles Letterbox) : 0 / 0 / 0 / 0 / 0 / 0
List (Subtitles Pan&Scan) : 0 / 0 / 0 / 0 / 0 / 0
Menu #2
Duration : 400ms
00:00:00.000 : Chapter 1
List (Audio) : 0
List (Subtitles 4/3) : 0 / 1 / 2 / 3 / 4 / 5
List (Subtitles Wide) : 0 / 0 / 0 / 0 / 0 / 0
List (Subtitles Letterbox) : 0 / 0 / 0 / 0 / 0 / 0
List (Subtitles Pan&Scan) : 0 / 0 / 0 / 0 / 0 / 0
Menu #3
General
Complete name : D:\Мои релизы\Babas bilar [DVD9]\VIDEO_TS\VTS_03_0.IFO
Format : DVD Video
Format profile : Program
File size : 22.0 KiB
Duration : 20mn 59s
Overall bit rate : 143 bps
Video
ID : 224 (0xE0)
Format : MPEG Video
Format version : Version 2
Duration : 20mn 59s
Bit rate mode : Variable
Width : 720 pixels
Height : 576 pixels
Display aspect ratio : 4:3
Frame rate : 25.000 fps
Standard : PAL
Compression mode : Lossy
Audio
ID : 128 (0x80)
Format : AC-3
Format/Info : Audio Coding 3
Duration : 20mn 59s
Channel(s) : 2 channels
Sampling rate : 48.0 KHz
Compression mode : Lossy
Language : Swedish
Text #1
ID : 32 (0x20)
Format : RLE
Format/Info : Run-length encoding
Bit depth : 2 bits
Language : Swedish
Text #2
ID : 32 (0x20)
Format : RLE
Format/Info : Run-length encoding
Bit depth : 2 bits
Language : Swedish
Text #3
ID : 32 (0x20)
Format : RLE
Format/Info : Run-length encoding
Bit depth : 2 bits
Language : Danish
Text #4
ID : 32 (0x20)
Format : RLE
Format/Info : Run-length encoding
Bit depth : 2 bits
Language : Norwegian
Text #5
ID : 32 (0x20)
Format : RLE
Format/Info : Run-length encoding
Bit depth : 2 bits
Language : Finnish
Text #6
ID : 32 (0x20)
Format : RLE
Format/Info : Run-length encoding
Bit depth : 2 bits
Language : English
Menu #1
Duration : 20mn 59s
00:00:00.000 : Chapter 1
00:00:00.400 : Chapter 2
00:02:23.400 : Chapter 3
00:07:13.040 : Chapter 4
00:09:04.840 : Chapter 5
00:10:57.680 : Chapter 6
00:11:56.960 : Chapter 7
00:20:59.400 : Chapter 8
List (Audio) : 0
List (Subtitles 4/3) : 0 / 1 / 2 / 3 / 4 / 5
List (Subtitles Wide) : 0 / 0 / 0 / 0 / 0 / 0
List (Subtitles Letterbox) : 0 / 0 / 0 / 0 / 0 / 0
List (Subtitles Pan&Scan) : 0 / 0 / 0 / 0 / 0 / 0
Menu #2
Duration : 400ms
00:00:00.000 : Chapter 1
List (Audio) : 0
List (Subtitles 4/3) : 0 / 1 / 2 / 3 / 4 / 5
List (Subtitles Wide) : 0 / 0 / 0 / 0 / 0 / 0
List (Subtitles Letterbox) : 0 / 0 / 0 / 0 / 0 / 0
List (Subtitles Pan&Scan) : 0 / 0 / 0 / 0 / 0 / 0
Menu #3
General
Complete name : D:\Мои релизы\Babas bilar [DVD9]\VIDEO_TS\VTS_03_1.VOB
Format : MPEG-PS
File size : 1 024 MiB
Duration : 19mn 33s
Overall bit rate : 7 320 Kbps
Writing library : encoded by TMPGEnc (ver. 2.524.63.181)
Video
ID : 224 (0xE0)
Format : MPEG Video
Format version : Version 2
Format profile : Main@Main
Format settings, BVOP : Yes
Format settings, Matrix : Default
Duration : 19mn 33s
Bit rate mode : Constant
Bit rate : 6 983 Kbps
Width : 720 pixels
Height : 576 pixels
Display aspect ratio : 4:3
Frame rate : 25.000 fps
Standard : PAL
Color space : YUV
Chroma subsampling : 4:2:0
Bit depth : 8 bits
Compression mode : Lossy
Bits/(Pixel*Frame) : 0.673
Stream size : 977 MiB (95%)
Writing library : TMPGEnc 2.524.63.181
Audio
ID : 128 (0x80)
Format : AC-3
Format/Info : Audio Coding 3
Format profile : Dolby Digital
Mode extension : CM (complete main)
Duration : 19mn 33s
Bit rate mode : Constant
Bit rate : 192 Kbps
Channel(s) : 2 channels
Channel positions : Front: L R
Sampling rate : 48.0 KHz
Bit depth : 16 bits
Compression mode : Lossy
Video delay : 6ms
Stream size : 26.9 MiB (3%)
Text #1
ID : 32 (0x20)
Format : RLE
Format/Info : Run-length encoding
Video delay : 6ms
Text #2
ID : 33 (0x21)
Format : RLE
Format/Info : Run-length encoding
Video delay : 6ms
Text #3
ID : 34 (0x22)
Format : RLE
Format/Info : Run-length encoding
Video delay : 6ms
Text #4
ID : 35 (0x23)
Format : RLE
Format/Info : Run-length encoding
Video delay : 6ms
Text #5
ID : 36 (0x24)
Format : RLE
Format/Info : Run-length encoding
Video delay : 6ms
Text #6
ID : 37 (0x25)
Format : RLE
Format/Info : Run-length encoding
Video delay : 6ms
Menu
General
Complete name : D:\Мои релизы\Babas bilar [DVD9]\VIDEO_TS\VTS_03_2.VOB
Format : MPEG-PS
File size : 74.7 MiB
Duration : 1mn 25s
Overall bit rate : 7 305 Kbps
Video
ID : 224 (0xE0)
Format : MPEG Video
Format version : Version 2
Format profile : Main@Main
Format settings, BVOP : Yes
Format settings, Matrix : Default
Format settings, GOP : M=3, N=13
Duration : 1mn 25s
Bit rate mode : Constant
Bit rate : 7 000 Kbps
Width : 720 pixels
Height : 576 pixels
Display aspect ratio : 4:3
Frame rate : 25.000 fps
Standard : PAL
Color space : YUV
Chroma subsampling : 4:2:0
Bit depth : 8 bits
Scan type : Interlaced
Scan order : Top Field First
Compression mode : Lossy
Bits/(Pixel*Frame) : 0.675
Stream size : 70.9 MiB (95%)
Audio
ID : 128 (0x80)
Format : AC-3
Format/Info : Audio Coding 3
Format profile : Dolby Digital
Mode extension : CM (complete main)
Duration : 1mn 25s
Bit rate mode : Constant
Bit rate : 192 Kbps
Channel(s) : 2 channels
Channel positions : Front: L R
Sampling rate : 48.0 KHz
Bit depth : 16 bits
Compression mode : Lossy
Video delay : -360ms
Stream size : 1.96 MiB (3%)
Menu

Скриншоты меню

Скриншоты

Скриншоты доп. материалов

Показать сообщения:    

Текущее время: 23-Сен 02:59

Часовой пояс: UTC - 1


Вы не можете начинать темы
Вы не можете отвечать на сообщения
Вы не можете редактировать свои сообщения
Вы не можете удалять свои сообщения
Вы не можете голосовать в опросах
Вы не можете прикреплять файлы к сообщениям
Вы не можете скачивать файлы

!ВНИМАНИЕ!
Сайт не предоставляет электронные версии произведений, а занимается лишь коллекционированием и каталогизацией ссылок, присылаемых и публикуемых на форуме нашими читателями. Если вы являетесь правообладателем какого-либо представленного материала и не желаете, чтобы ссылка на него находилась в нашем каталоге, свяжитесь с нами, и мы незамедлительно удалим ее. Файлы для обмена на трекере предоставлены пользователями сайта, и администрация не несет ответственности за их содержание. Просьба не заливать файлы, защищенные авторскими правами, а также файлы нелегального содержания!