Наваждение / Obsession (Брайан Де Пальма / Brian De Palma) [1976, США, триллер, BDRip 720p] MVO + Dub + Original Eng + Sub Rus, Eng :: Ивановский Торрент трекер
Важное объявление!
У Нас Все раздачи мультитрекерные, при нуле пиров в релизах, можете смело вставать на закачку!
Статистика раздачи
Размер:     |    Зарегистрирован:     |    Скачан:     |   
Нет
 
     
 
 
Автор Сообщение

HUNTER

Стаж:
4 года 11 месяцев
Сообщений:
66054

Репутация: 101

[+] [-]
Вне форума [Профиль] [ЛС]

«The love story that will scare the life out of you»НаваждениеObsession-
Страна: США
Жанр: триллер
Год выпуска: 1976
Продолжительность: 01:38:08-Перевод: Профессиональный (многоголосый закадровый) R5
Перевод 2: Профессиональный (дублированный) Советский дубляж
Оригинальная дорожка: Английский
Субтитры: русские, английские (SDH)
Режиссер: Брайан Де Пальма / Brian De Palma
В ролях:
Клифф Робертсон (Michael Courtland), Женевьев Бюжо (Elizabeth Courtland / Sandra Portinari), Джон Литгоу (Robert Lasalle), Сильвия Куумба Уильямс (Maid), Ванда Блэкман (Amy Courtland), Дж. Патрик МакНамара (Third Kidnapper), Стэнли Дж. Рейс (Insp. Brie), Ник Крейгер (Farber), Стокер Фонтелье (Dr. Ellman), Дон Худ (Ferguson), Андреа Эстерхази (D'Annunzio), Томас Карр (Paper Boy)-Описание: Жизнь бизнесмена Майкла Куртленда теряет всякий смысл, когда его жена Элизабет и восьмилетняя дочь погибают во время спасательной операции по освобождению заложников. Правда, их тела так и не были найдены.
Спустя шестнадцать лет Майкл приезжает в Италию, где встречает молодую женщину Сандру, как две капли воды похожую на его погибшую жену. Но вскоре он начинает замечать в поведении женщины странности...-
MPAA: PG - Рекомендуется присутствие родителей
-Источник: BD-Remux uralmix
Качество: BDRip 720p| Сэмпл
Контейнер: MKV
Видео: AVC x264, 1280x544 (2.353), 23.976 fps, 7 836 Kbps, 0.469 bit/pixel
Аудио №1: AC3, 48.0 KHz, 384 Kbps, 6 channels (MVO, R5)
Аудио №2: AC3, 48.0 KHz, 192 Kbps, 2 channels (DUB, Советский)
Аудио №3: DTS, 48.0 KHz, 1 509 Kbps, 6 channels (Оригинал)
Формат субтитров: softsub (SRT)
Навигация по главам: есть
-

Сравнение с источником





x264 / MediaInfo

Код:
x264 [info]: frame I:791   Avg QP:17.17  size:106063
x264 [info]: frame P:22414 Avg QP:18.43  size: 69259
x264 [info]: frame B:117988 Avg QP:20.78  size: 36237
Код:
General
Unique ID : 228711616343341059297814346882809848693 (0xAC10414B402DE9B78F08F006B0B7E375)
Complete name : E:\obsession.1976.bdrip.720p.mkv
Format : Matroska
Format version : Version 4 / Version 2
File size : 6.94 GiB
Duration : 1h 38mn
Overall bit rate : 10.1 Mbps
Movie name : Наваждение / Obsession (1976) egiko'z rip // to the stars
Encoded by : egiko
Encoded date : UTC 2015-06-03 19:39:37
Writing application : mkvmerge v7.9.0 ('Birds') 64bit
Writing library : libebml v1.3.1 + libmatroska v1.4.2
Attachements : cover.jpg
DIRECTOR : Brian De Palma
DATE_RELEASED : 1976
SUMMARY : «The love story that will scare the life out of you»
DURATION : 01:36:52.305000000
NUMBER_OF_FRAMES : 748
NUMBER_OF_BYTES : 27231
_STATISTICS_WRITING_APP : mkvmerge v7.9.0 ('Birds') 64bit
_STATISTICS_WRITING_DATE_UTC : 2015-06-03 19:39:37
_STATISTICS_TAGS : BPS DURATION NUMBER_OF_FRAMES NUMBER_OF_BYTES
Video
ID : 1
Format : AVC
Format/Info : Advanced Video Codec
Format profile : High@L4.1
Format settings, CABAC : Yes
Format settings, ReFrames : 12 frames
Codec ID : V_MPEG4/ISO/AVC
Duration : 1h 38mn
Bit rate : 7 836 Kbps
Width : 1 280 pixels
Height : 544 pixels
Display aspect ratio : 2.35:1
Frame rate mode : Constant
Frame rate : 23.976 fps
Color space : YUV
Chroma subsampling : 4:2:0
Bit depth : 8 bits
Scan type : Progressive
Bits/(Pixel*Frame) : 0.469
Stream size : 5.37 GiB (77%)
Title : Obsession (1976)
Writing library : x264 core 146 r2538kMod 121396c
Encoding settings : cabac=1 / ref=12 / deblock=1:-3:-3 / analyse=0x3:0x113 / me=umh / subme=10 / psy=1 / fade_compensate=0.00 / psy_rd=0.90:0.00 / mixed_ref=1 / me_range=32 / chroma_me=1 / trellis=2 / 8x8dct=1 / cqm=0 / deadzone=21,11 / fast_pskip=0 / chroma_qp_offset=-2 / threads=6 / lookahead_threads=1 / sliced_threads=0 / nr=0 / decimate=1 / interlaced=0 / bluray_compat=0 / constrained_intra=0 / fgo=0 / bframes=13 / b_pyramid=2 / b_adapt=2 / b_bias=0 / direct=1 / weightb=1 / open_gop=0 / weightp=2 / keyint=240 / keyint_min=23 / scenecut=40 / intra_refresh=0 / rc_lookahead=60 / rc=crf / mbtree=0 / crf=17.4000 / qcomp=0.60 / qpmin=0 / qpmax=69 / qpstep=4 / vbv_maxrate=62500 / vbv_bufsize=78125 / crf_max=0.0 / nal_hrd=none / filler=0 / ip_ratio=1.40 / pb_ratio=1.30 / aq=1:0.60
Language : English
Default : Yes
Forced : No
DURATION : 01:38:08.925000000
NUMBER_OF_FRAMES : 141193
NUMBER_OF_BYTES : 5911798170
_STATISTICS_WRITING_APP : mkvmerge v7.9.0 ('Birds') 64bit
_STATISTICS_WRITING_DATE_UTC : 2015-06-03 19:39:37
_STATISTICS_TAGS : BPS DURATION NUMBER_OF_FRAMES NUMBER_OF_BYTES
Audio #1
ID : 2
Format : AC-3
Format/Info : Audio Coding 3
Mode extension : CM (complete main)
Format settings, Endianness : Big
Codec ID : A_AC3
Duration : 1h 38mn
Bit rate mode : Constant
Bit rate : 384 Kbps
Channel(s) : 6 channels
Channel positions : Front: L C R, Side: L R, LFE
Sampling rate : 48.0 KHz
Bit depth : 16 bits
Compression mode : Lossy
Stream size : 270 MiB (4%)
Title : MVO, R5
Language : Russian
Default : Yes
Forced : No
Audio #2
ID : 3
Format : AC-3
Format/Info : Audio Coding 3
Mode extension : CM (complete main)
Format settings, Endianness : Big
Codec ID : A_AC3
Duration : 1h 38mn
Bit rate mode : Constant
Bit rate : 192 Kbps
Channel(s) : 2 channels
Channel positions : Front: L R
Sampling rate : 48.0 KHz
Bit depth : 16 bits
Compression mode : Lossy
Stream size : 135 MiB (2%)
Title : DUB, Советский
Language : Russian
Default : No
Forced : No
Audio #3
ID : 4
Format : DTS
Format/Info : Digital Theater Systems
Mode : 16
Format settings, Endianness : Big
Codec ID : A_DTS
Duration : 1h 38mn
Bit rate mode : Constant
Bit rate : 1 509 Kbps
Channel(s) : 6 channels
Channel positions : Front: L C R, Side: L R, LFE
Sampling rate : 48.0 KHz
Bit depth : 24 bits
Compression mode : Lossy
Stream size : 1.03 GiB (15%)
Title : Оригинал
Language : English
Default : No
Forced : No
Text #1
ID : 5
Format : UTF-8
Codec ID : S_TEXT/UTF8
Codec ID/Info : UTF-8 Plain Text
Language : Russian
Default : No
Forced : No
Text #2
ID : 6
Format : UTF-8
Codec ID : S_TEXT/UTF8
Codec ID/Info : UTF-8 Plain Text
Language : English
Default : No
Forced : No
Menu
00:00:00.000 : en:00:00:00.000
00:06:40.275 : en:00:06:40.275
00:11:26.519 : en:00:11:26.519
00:17:07.276 : en:00:17:07.276
00:23:02.423 : en:00:23:02.423
00:27:21.723 : en:00:27:21.723
00:32:43.170 : en:00:32:43.170
00:41:10.051 : en:00:41:10.051
00:47:02.820 : en:00:47:02.820
00:53:04.056 : en:00:53:04.056
00:58:29.715 : en:00:58:29.715
01:03:40.358 : en:01:03:40.358
01:08:30.273 : en:01:08:30.273
01:15:07.211 : en:01:15:07.211
01:22:56.847 : en:01:22:56.847
01:28:59.626 : en:01:28:59.626

_________________
Показать сообщения:    

Текущее время: Сегодня 10:30

Часовой пояс: GMT



Вы не можете начинать темы
Вы не можете отвечать на сообщения
Вы не можете редактировать свои сообщения
Вы не можете удалять свои сообщения
Вы не можете голосовать в опросах
Вы не можете прикреплять файлы к сообщениям
Вы не можете скачивать файлы