Ивановский Торрент трекер
Яндекс.Погода
 

[Цитировать]
HUNTER

Наброски Хидамари: Выпускной Саэ и Хиро / Hidamari Sketch: Sae Hiro Sotsugyou Hen
Страна: Япония
Год выпуска: 2013 г.
Жанр: Комедия, школа, повседневность.
Тип: OVA
Продолжительность: 2 эп. х 25 мин.
Режиссер: Аоки Умэ
Студия:
Перевод: 2-х голосый Кошка Бестия & codevip (скачать сэмпл)
Описание: Доброе, милое девчачье аниме о дружбе, взаимопонимании и почти идеальных отношениях между одноклассницами. ^__^ Приятная вещица для отдыха и расслабления мозга после более серьёзных и эмоционально насыщенных аниме. Добро, кавай и никакого напряга! Продолжение четвертого сезона, адаптация манги. © Кошка Бестия
Качество: BDRip
Тип релиза: Без хардсаба
Формат видео: MKV
Сборка: swormer
Видео: Mpeg4 (AVC), 1920x1080, 8 bit, 2410 kbps, 23.976 fps
Аудио 1: MP3, 192 kbps, 48 Hz, 2 ch (в составе контейнера)
Аудио 2: MP3, 192 kbps, 48 Hz, 2 ch (в составе контейнера)
Субтитры : ASS, софтсаб, встроенные, полные / форсированные. От: YakusSub Studio

Подробные тех. данные
Уникальный идентификатор : 243932493709201427959363623316723233107 (0xB783B07CCDDCCE99AAF4C57C76D27153)Полное имя : D:\9 UPLOAD\Hidamari Sketch OVA\Hidamari Sketch OVA_1_rus.mkvФормат : MatroskaВерсия формата : Version 2Размер файла : 493 МбайтПродолжительность : 24 м.Общий поток : 2851 Кбит/секДата кодирования : UTC 2014-02-18 17:02:52Программа кодирования : mkvmerge v4.9.1 ('Ich will') сборка от Jul 11 2011 23:53:15Библиотека кодирования : libebml v1.2.1 + libmatroska v1.1.1
ВидеоИдентификатор : 1Формат : AVCФормат/Информация : Advanced Video CodecПрофиль формата : High@L4.0Параметр CABAC формата : ДаПараметр ReFrames формата : 4 кадраИдентификатор кодека : V_MPEG4/ISO/AVCПродолжительность : 24 м.Битрейт : 2410 Кбит/секШирина : 1920 пикселейВысота : 1080 пикселейСоотношение сторон : 16:9Режим частоты кадров : ПостоянныйЧастота кадров : 23,976 кадра/секЦветовое пространство : YUVСубдискретизация насыщенности : 4:2:0Битовая глубина : 8 битТип развёртки : ПрогрессивнаяБит/(Пиксели*Кадры) : 0.048Размер потока : 417 Мбайт (85%)Заголовок : videoБиблиотека кодирования : x264 core 133 r2334 a3ac64bНастройки программы : cabac=1 / ref=3 / deblock=1:0:0 / analyse=0x3:0x113 / me=hex / subme=7 / psy=1 / psy_rd=1.00:0.00 / mixed_ref=1 / me_range=16 / chroma_me=1 / trellis=1 / 8x8dct=1 / cqm=0 / deadzone=21,11 / fast_pskip=1 / chroma_qp_offset=-2 / threads=20 / lookahead_threads=3 / sliced_threads=0 / nr=0 / decimate=1 / interlaced=0 / bluray_compat=0 / constrained_intra=0 / bframes=3 / b_pyramid=2 / b_adapt=1 / b_bias=0 / direct=1 / weightb=1 / open_gop=0 / weightp=2 / keyint=250 / keyint_min=23 / scenecut=40 / intra_refresh=0 / rc_lookahead=40 / rc=crf / mbtree=1 / crf=17.0 / qcomp=0.60 / qpmin=0 / qpmax=69 / qpstep=4 / ip_ratio=1.40 / aq=1:1.00Язык : JapaneseDefault : ДаForced : Нет
Аудио #1Идентификатор : 2Формат : MPEG AudioВерсия формата : Version 1Профиль формата : Layer 3Режим : Joint stereoИдентификатор кодека : A_MPEG/L3Идентификатор кодека/Подсказка : MP3Продолжительность : 24 м.Вид битрейта : ПостоянныйБитрейт : 192 Кбит/секКаналы : 2 каналаЧастота : 48,0 КГцМетод сжатия : С потерямиРазмер потока : 33,2 Мбайт (7%)Заголовок : Koshka BestiyaЯзык : RussianDefault : ДаForced : Нет
Аудио #2Идентификатор : 4Формат : MPEG AudioВерсия формата : Version 1Профиль формата : Layer 3Идентификатор кодека : A_MPEG/L3Идентификатор кодека/Подсказка : MP3Продолжительность : 24 м.Вид битрейта : ПостоянныйБитрейт : 192 Кбит/секКаналы : 2 каналаЧастота : 48,0 КГцМетод сжатия : С потерямиРазмер потока : 33,2 Мбайт (7%)Заголовок : origЯзык : JapaneseDefault : НетForced : Нет
Текст #1Идентификатор : 3Формат : ASSИдентификатор кодека : S_TEXT/ASSИдентификатор кодека/Информация : Advanced Sub Station AlphaМетод сжатия : Без потерьЗаголовок : poyasneniyaЯзык : RussianDefault : ДаForced : Нет
Текст #2Идентификатор : 5Формат : ASSИдентификатор кодека : S_TEXT/ASSИдентификатор кодека/Информация : Advanced Sub Station AlphaМетод сжатия : Без потерьЗаголовок : YakuSub StudioЯзык : RussianDefault : НетForced : Нет
Список эпизодов
01. February 1st - 20th, Exam Sketch / 1 - 20 февраля, экзамены
02. February 28 - March 1, Graduation Sketch / 28 февраля - 1 марта, Саэ и Хиро выпускаются
СкриншотыДругие релизы от нашей команды


Показать сообщения:    

Текущее время: 12-Дек 00:53

Часовой пояс: UTC ± 0


Вы не можете начинать темы
Вы не можете отвечать на сообщения
Вы не можете редактировать свои сообщения
Вы не можете удалять свои сообщения
Вы не можете голосовать в опросах
Вы не можете прикреплять файлы к сообщениям
Вы не можете скачивать файлы

!ВНИМАНИЕ!
Сайт не предоставляет электронные версии произведений, а занимается лишь коллекционированием и каталогизацией ссылок, присылаемых и публикуемых на форуме нашими читателями. Если вы являетесь правообладателем какого-либо представленного материала и не желаете, чтобы ссылка на него находилась в нашем каталоге, свяжитесь с нами, и мы незамедлительно удалим ее. Файлы для обмена на трекере предоставлены пользователями сайта, и администрация не несет ответственности за их содержание. Просьба не заливать файлы, защищенные авторскими правами, а также файлы нелегального содержания!