Важное объявление!
У Нас Все раздачи мультитрекерные, при нуле пиров в релизах, можете смело вставать на закачку!
Статистика раздачи
Размер:     |    Зарегистрирован:     |    Скачан:     |   
Нет
 
     
 
 
Автор Сообщение

димитри37

Стаж:
4 года 5 месяцев
Сообщений:
1236

Репутация: 127

[+] [-]
Вне форума [Профиль] [ЛС]

Мясники / Butcher Boys
Страна: США
Жанр: ужасы, боевик, триллер, комедия
Год выпуска: 2012
Продолжительность: 01:27:29
Перевод: двухголосый закадровый
Cубтитры: нет
Режиссер: Duane Graves / Дуан Грейвз, Джастин Микс / Justin Meeks
В ролях: Али Фолкнер, Эдвин Нил, Мэрилин Бёрнс, Дерек Ли Никсон, Джонни Уолтер, Джон Дуган, Сонни Карл Дэвис, Грег Келли, Джастин Микс, Тери МакМинн
Описание: Невероятные жестокие гонки без остановки через адские городские кварталы. Празднование дня рождения в высококлассном ресторане приводит в движения события, которые сталкивают Сисси, её брата Микки и их друзей, Барби и Кенни, лицом к лицу с жутким миром Мясников. Вдохновлённые людоедской сказкой Джонатана Сфифта "Скромное предложение", Мясники превратились в международных хищников, охотящихся на человеческую плоть - живую или мёртвую. Их охотничьи угодья городские кварталы...

Качество видео: HDRip
Формат видео: AVI
Видео: 640x352 (1.82:1), 23.976 fps, XviD MPEG-4 ~977 kbps avg, 0.18 bit/pixel
Аудио: AC3 Dolby Digital, 2/0 (L,R) ch, ~192 kbps
ПРИСУТСТВУЕТ НЕЦЕНЗУРНАЯ ЛЕКСИКА В ОГРОМНОМ КОЛИЧЕСТВЕ!!!

MediaInfo

General
Complete name : I:\Моё\Butcher Boys.avi
Format : AVI
Format/Info : Audio Video Interleave
File size : 738 MiB
Duration : 1h 27mn
Overall bit rate : 1 179 Kbps
Writing application : VirtualDubMod 1.5.10.2 (build 2540/release)
Writing library : VirtualDubMod build 2540/release
Video
ID : 0
Format : MPEG-4 Visual
Format profile : Advanced Simple@L5
Format settings, BVOP : 2
Format settings, QPel : No
Format settings, GMC : No warppoints
Format settings, Matrix : Default (H.263)
Muxing mode : Packed bitstream
Codec ID : XVID
Codec ID/Hint : XviD
Duration : 1h 27mn
Bit rate : 977 Kbps
Width : 640 pixels
Height : 352 pixels
Display aspect ratio : 16:9
Frame rate : 23.976 fps
Color space : YUV
Chroma subsampling : 4:2:0
Bit depth : 8 bits
Scan type : Progressive
Compression mode : Lossy
Bits/(Pixel*Frame) : 0.181
Stream size : 612 MiB (83%)
Writing library : XviD 64
Audio
ID : 1
Format : AC-3
Format/Info : Audio Coding 3
Mode extension : CM (complete main)
Format settings, Endianness : Big
Codec ID : 2000
Duration : 1h 27mn
Bit rate mode : Constant
Bit rate : 192 Kbps
Channel(s) : 2 channels
Channel positions : Front: L R
Sampling rate : 48.0 KHz
Bit depth : 16 bits
Compression mode : Lossy
Stream size : 120 MiB (16%)
Alignment : Split accross interleaves
Interleave, duration : 42 ms (1.00 video frame)
Interleave, preload duration : 500 ms

Скриншот c названием фильма

Скриншоты




-
Показать сообщения:    

Текущее время: Сегодня 03:59

Часовой пояс: GMT



Вы не можете начинать темы
Вы не можете отвечать на сообщения
Вы не можете редактировать свои сообщения
Вы не можете удалять свои сообщения
Вы не можете голосовать в опросах
Вы не можете прикреплять файлы к сообщениям
Вы не можете скачивать файлы