Важное объявление!
У Нас Все раздачи мультитрекерные, при нуле пиров в релизах, можете смело вставать на закачку!
 
Автор Сообщение

HUNTER

Стаж:
4 года 6 месяцев
Сообщений:
60970

Репутация: 101

[+] [-]
Вне форума [Профиль] [ЛС]

Мэри Райли / Mary Reilly«В битве между добром и злом было много жертв… и один свидетель»
Страна: США, Великобритания
Жанр: триллер, драма
Год выпуска: 1996
Продолжительность: 01:43:55
-
Перевод 1: Профессиональный (многоголосый закадровый) Видеосервис
Перевод 2: Профессиональный (многоголосый закадровый) ОРТ
Перевод 3: Профессиональный (двухголосый закадровый) SDI Media*
Перевод 4: Авторский (одноголосый закадровый) Петр Карцев
Cубтитры: русские, английские
Оригинальная аудиодорожка: английский
-
Режиссер: Стивен Фрирз / Stephen Frears
В ролях: Джулия Робертс, Джон Малкович, Джордж Коул, Майкл Гэмбон, Кэти Стафф, Гленн Клоуз, Майкл Шин, Брона Галлахер, Линда Бэссет, Генри Гудман
-
Описание: Зловещая тайна доктора Джекилла и мистера Хайда... Всю правду об ужасных событиях, происходивших в доме доктора, до конца знает только один человек - служанка Мэри Райли. Только она стала свидетельницей всего того, что происходило с хозяином и его таинственным приятелем, имевшим привычку появляться именно тогда, когда Джекилла не было дома. Классическая история Стивенсона о чудовищных опытах сумасшедшего доктора предстает в новой версии Стивена Фрирза ("Опасные связи") еще более страшной и напряженной, благодаря прекрасным актерским работам Джулии Робертс и Джона Малковича.
[img]https://rating.kinopoisk.ru/6710.gif[/img]
>>> Собственная запись со спутника Eutelsat 36A/36B (36°E) | TV1000 Premium HD (эфир 24.09.2016г.)
Тип релиза: HDTV 1080i
Контейнер: MKV
Видео: MPEG-4 AVC / PAL 16:9 / 1920x1080 (1,78:1) / 8880 kbps / 25,000 fps / 0.086 bit/pixel / High@L4
Аудио 1: Russian / Dolby Digital Audio / 5.1 Ch / 48 kHz / 448 kbps / 16 bit | MVO | Видеосервис
Аудио 2: Russian / Dolby Digital Audio / 2.0 Ch / 48 kHz / 384 kbps / 16 bit | MVO | ОРТ
Аудио 3: Russian / Dolby Digital Audio / 2.0 Ch / 48 kHz / 192 kbps / 16 bit | DVO | SDI Media*
Аудио 4: Russian / Dolby Digital Audio / 2.0 Ch / 48 kHz / 192 kbps / 16 bit | AVO | Петр Карцев
Аудио 5: English / Dolby Digital Audio / 5.1 Ch / 48 kHz / 448 kbps / 16 bit | Original | DVD R2
Формат субтитров: softsub (SRT)
Навигация по главам: есть

*Примечание

Код:
К сожалению, оригинальной английской дорожки в эфире не было, кроме как MP2 и AC3 от SDI Media, поэтому вся синхронизация остальных дорожек и субтитров производилась исключительно по AC3 SDI Media.

MediaInfo

Код:
Общее
Уникальный идентификатор                 : 234619380882014674278046769830204714433 (0xB0820C92F5AD023D8588C750B166ADC1)
Полное имя                               : D:\Mary Reilly.1996.HDTV.1080i.mkv
Формат                                   : Matroska
Версия формата                           : Version 4 / Version 2
Размер файла                             : 7,65 Гбайт
Продолжительность                        : 1 ч. 43 м.
Общий поток                              : 10,5 Мбит/сек
Название фильма                          : Release for RuTracker © flaSI-I
Дата кодирования                         : UTC 2016-09-25 18:49:58
Программа кодирования                    : mkvmerge v9.4.2 ('So High') 64bit
Библиотека кодирования                   : libebml v1.3.4 + libmatroska v1.4.5
Видео
Идентификатор                            : 1
Формат                                   : AVC
Формат/Информация                        : Advanced Video Codec
Профиль формата                          : High@L4
Параметр CABAC формата                   : Да
Параметр ReFrames формата                : 4 кадра
Идентификатор кодека                     : V_MPEG4/ISO/AVC
Продолжительность                        : 1 ч. 43 м.
Битрейт                                  : 8880 Кбит/сек
Ширина                                   : 1920 пикселей
Высота                                   : 1080 пикселей
Соотношение сторон                       : 16:9
Режим частоты кадров                     : Переменный
Частота кадров                           : 50,000 кадров/сек
Частота кадров в оригинале               : 25,000 кадров/сек
Стандарт вещания                         : Component
Цветовое пространство                    : YUV
Субдискретизация насыщенности            : 4:2:0
Битовая глубина                          : 8 бит
Тип развёртки                            : Чересстрочная
Метод сохранения типа развёртки          : Раздельные поля
Порядок развёртки                        : Верхнее поле первое
Бит/(Пиксели*Кадры)                      : 0.086
Размер потока                            : 6,44 Гбайт (84%)
Язык                                     : English
Default                                  : Да
Forced                                   : Нет
Цветовой диапазон                        : Limited
Основные цвета                           : BT.709
Характеристики трансфера                 : BT.709
Коэффициенты матрицы                     : BT.709
Аудио #1
Идентификатор                            : 2
Формат                                   : AC-3
Формат/Информация                        : Audio Coding 3
Расширение режима                        : CM (complete main)
Параметр Endianness формата              : Big
Идентификатор кодека                     : A_AC3
Продолжительность                        : 1 ч. 43 м.
Вид битрейта                             : Постоянный
Битрейт                                  : 448 Кбит/сек
Каналы                                   : 6 каналов
Расположение каналов                     : Front: L C R, Side: L R, LFE
Частота                                  : 48,0 КГц
Частота кадров                           : 31,250 кадров/сек (1536 spf)
Метод сжатия                             : С потерями
Размер потока                            : 333 Мбайт (4%)
Заголовок                                : MVO | Видеосервис
Язык                                     : Russian
Default                                  : Да
Forced                                   : Нет
Аудио #2
Идентификатор                            : 3
Формат                                   : AC-3
Формат/Информация                        : Audio Coding 3
Профиль формата                          : Dolby Digital
Расширение режима                        : CM (complete main)
Параметр Endianness формата              : Big
Идентификатор кодека                     : A_AC3
Продолжительность                        : 1 ч. 43 м.
Вид битрейта                             : Постоянный
Битрейт                                  : 384 Кбит/сек
Каналы                                   : 2 канала
Расположение каналов                     : Front: L R
Частота                                  : 48,0 КГц
Частота кадров                           : 31,250 кадров/сек (1536 spf)
Метод сжатия                             : С потерями
Размер потока                            : 285 Мбайт (4%)
Заголовок                                : MVO | ОРТ
Язык                                     : Russian
Default                                  : Нет
Forced                                   : Нет
Аудио #3
Идентификатор                            : 4
Формат                                   : AC-3
Формат/Информация                        : Audio Coding 3
Расширение режима                        : CM (complete main)
Параметр Endianness формата              : Big
Идентификатор кодека                     : A_AC3
Продолжительность                        : 1 ч. 43 м.
Вид битрейта                             : Постоянный
Битрейт                                  : 192 Кбит/сек
Каналы                                   : 2 канала
Расположение каналов                     : Front: L R
Частота                                  : 48,0 КГц
Частота кадров                           : 31,250 кадров/сек (1536 spf)
Метод сжатия                             : С потерями
Размер потока                            : 143 Мбайт (2%)
Заголовок                                : DVO | SDI Media
Язык                                     : Russian
Default                                  : Нет
Forced                                   : Нет
Аудио #4
Идентификатор                            : 5
Формат                                   : AC-3
Формат/Информация                        : Audio Coding 3
Расширение режима                        : CM (complete main)
Параметр Endianness формата              : Big
Идентификатор кодека                     : A_AC3
Продолжительность                        : 1 ч. 43 м.
Вид битрейта                             : Постоянный
Битрейт                                  : 192 Кбит/сек
Каналы                                   : 2 канала
Расположение каналов                     : Front: L R
Частота                                  : 48,0 КГц
Частота кадров                           : 31,250 кадров/сек (1536 spf)
Метод сжатия                             : С потерями
Размер потока                            : 143 Мбайт (2%)
Заголовок                                : AVO | Петр Карцев
Язык                                     : Russian
Default                                  : Нет
Forced                                   : Нет
Аудио #5
Идентификатор                            : 6
Формат                                   : AC-3
Формат/Информация                        : Audio Coding 3
Расширение режима                        : CM (complete main)
Параметр Endianness формата              : Big
Идентификатор кодека                     : A_AC3
Продолжительность                        : 1 ч. 43 м.
Вид битрейта                             : Постоянный
Битрейт                                  : 448 Кбит/сек
Каналы                                   : 6 каналов
Расположение каналов                     : Front: L C R, Side: L R, LFE
Частота                                  : 48,0 КГц
Частота кадров                           : 31,250 кадров/сек (1536 spf)
Метод сжатия                             : С потерями
Размер потока                            : 333 Мбайт (4%)
Заголовок                                : Original | DVD R2
Язык                                     : English
Default                                  : Нет
Forced                                   : Нет
Текст #1
Идентификатор                            : 7
Формат                                   : UTF-8
Идентификатор кодека                     : S_TEXT/UTF8
Идентификатор кодека/Информация          : UTF-8 Plain Text
Продолжительность                        : 1 ч. 38 м.
Битрейт                                  : 63 бит/сек
Count of elements                        : 826
Размер потока                            : 45,9 Кбайт (0%)
Заголовок                                : DVD R5
Язык                                     : Russian
Default                                  : Нет
Forced                                   : Нет
Текст #2
Идентификатор                            : 8
Формат                                   : UTF-8
Идентификатор кодека                     : S_TEXT/UTF8
Идентификатор кодека/Информация          : UTF-8 Plain Text
Продолжительность                        : 1 ч. 38 м.
Битрейт                                  : 39 бит/сек
Count of elements                        : 814
Размер потока                            : 28,2 Кбайт (0%)
Заголовок                                : DVD R2
Язык                                     : English
Default                                  : Нет
Forced                                   : Нет
Меню
00:00:00.000                             : en:Chapter 1
00:05:29.960                             : en:Chapter 2
00:14:26.640                             : en:Chapter 3
00:16:09.560                             : en:Chapter 4
00:21:36.240                             : en:Chapter 5
00:23:23.520                             : en:Chapter 6
00:26:46.920                             : en:Chapter 7
00:28:36.760                             : en:Chapter 8
00:30:22.480                             : en:Chapter 9
00:35:43.720                             : en:Chapter 10
00:38:51.840                             : en:Chapter 11
00:41:57.760                             : en:Chapter 12
00:46:39.720                             : en:Chapter 13
00:49:08.720                             : en:Chapter 14
00:51:11.800                             : en:Chapter 15
00:56:03.800                             : en:Chapter 16
00:59:53.680                             : en:Chapter 17
01:03:22.760                             : en:Chapter 18
01:04:47.000                             : en:Chapter 19
01:06:44.000                             : en:Chapter 20
01:11:00.880                             : en:Chapter 21
01:17:15.760                             : en:Chapter 22
01:19:27.080                             : en:Chapter 23
01:24:55.200                             : en:Chapter 24
01:27:07.920                             : en:Chapter 25
01:29:16.640                             : en:Chapter 26
01:32:51.280                             : en:Chapter 27
01:35:16.120                             : en:Chapter 28
01:40:52.000                             : en:Chapter 29

Скриншоты

-


_________________
Показать сообщения:    

Текущее время: Сегодня 07:35

Часовой пояс: GMT



Вы не можете начинать темы
Вы не можете отвечать на сообщения
Вы не можете редактировать свои сообщения
Вы не можете удалять свои сообщения
Вы не можете голосовать в опросах
Вы не можете прикреплять файлы к сообщениям
Вы не можете скачивать файлы
Наши партнеры: интернет магазин Ивановского трикотажа textilla.ru