Важное объявление!
У Нас Все раздачи мультитрекерные, при нуле пиров в релизах, можете смело вставать на закачку!
 
Автор Сообщение

HUNTER

Стаж:
4 года 8 месяцев
Сообщений:
62003

Репутация: 101

[+] [-]
Вне форума [Профиль] [ЛС]

Мы – Миллеры
We're the Millers
-«-If anyone asks»-Страна: США
Год выпуска: 2013
Жанр: комедия, криминал
Продолжительность: 01:49:46--Перевод: Профессиональный (дублированный)
Cубтитры: Русские форсированные, Русские, Украинские, Английские
Оригинальная аудиодорожка: Английская--Режиссер:
Роусон Маршалл Тёрбер / Rawson Marshall Thurber
В ролях:
Дженнифер Энистон (Rose O'Reilly), Ирфан Кхан (Adult Pi Patel), Джейсон Судейкис (David Clark), Эмма Робертс (Casey Mathis), Уилл Поултер (Kenny Rossmore), Эд Хелмс (Brad Gurdlinger), Ник Офферман (Don Fitzgerald), Кэтрин Хан (Edie Fitzgerald), Молли С. Куинн (Melissa Fitzgerald), Томер Сисле (Pablo Chacon)--Описание:Дэвид Берк — мелкий торговец наркотиками. Среди его клиентов — повара и скучающие домохозяйки. Детям он наркотики не продаёт и поэтому считает себя принципиальным человеком. Дэвид действительно хорошо относится к детям, но это не остается безнаказанным — он пытается помочь подросткам, попавшим в беду, и на него нападают хулиганы-панки. Они отбирают у него наркотики и деньги, и наш герой оказывается в отчаянном положении. Ведь ему нечем расплатиться с его поставщиком Брэдом. Единственный выход — подрядиться на доставку крупной партии наркотиков через границу…-- --Доп. информация: Исходиник BDRemux (Взятый из сети). Спасибо AlexD555 за инструкцию! Так же спасибо товарищам samsonq и ZVNV.--Меню: русское, статичное, озвученое
Сэмпл: http://multi-up.com/941152-Тип релиза: DVD5
Контейнер: DVD-Video
Видео: NTSC 16:9 (720x480) VBR, Auto Letterboxed
Аудио 1: Russian (Dolby AC3, 5.1 ch, 448 кб/с) - дубляж
Аудио 2: English (Dolby AC3, 5.1 ch, 448 кб/с) - оригиналРелиз от:

BDInfo исходника

DISC INFO:
Disc Title: WERE_THE_MILLERS
Protection: AACS
BD-Java: No
BDInfo: 0.5.8
PLAYLIST REPORT:
Name: 00100.MPLS
Length: 1:49:53.628 (h:m:s.ms)
Size: 26 831 609 856 bytes
Total Bitrate: 32,55 Mbps
(*) Indicates included stream hidden by this playlist.
VIDEO:
Codec Bitrate Description
----- ------- -----------
MPEG-4 AVC Video 25261 kbps 1080p / 23,976 fps / 16:9 / High Profile 4.1
AUDIO:
Codec Language Bitrate Description
----- -------- ------- -----------
DTS-HD Master Audio English 2182 kbps 5.1 / 48 kHz / 2182 kbps / 16-bit (DTS Core: 5.1 / 48 kHz / 1509 kbps / 16-bit)
Dolby Digital Audio Russian 640 kbps 5.1 / 48 kHz / 640 kbps / DN -4dB
Dolby Digital Audio Thai 640 kbps 5.1 / 48 kHz / 640 kbps / DN -4dB
Dolby Digital Audio Turkish 192 kbps 2.0 / 48 kHz / 192 kbps / DN -4dB / Dolby Surround
Dolby Digital Audio Ukrainian 640 kbps 5.1 / 48 kHz / 640 kbps / DN -4dB
* Dolby Digital Audio Japanese 640 kbps 5.1 / 48 kHz / 640 kbps / DN -4dB
SUBTITLES:
Codec Language Bitrate Description
----- -------- ------- -----------
* Presentation Graphics Japanese 27,862 kbps
Presentation Graphics English 50,337 kbps
Presentation Graphics Chinese 36,732 kbps
Presentation Graphics Chinese 41,088 kbps
Presentation Graphics Chinese 36,080 kbps
Presentation Graphics Korean 29,822 kbps
Presentation Graphics Arabic 20,837 kbps
Presentation Graphics Russian 28,561 kbps
Presentation Graphics Thai 43,510 kbps
Presentation Graphics Turkish 40,314 kbps
Presentation Graphics Ukrainian 41,551 kbps
Presentation Graphics Russian 0,189 kbps
Presentation Graphics Turkish 0,340 kbps
* Presentation Graphics Japanese 0,562 kbps
FILES:
Name Time In Length Size Total Bitrate
---- ------- ------ ---- -------------
00080.M2TS 0:00:00.000 0:20:06.371 5 056 475 136 33 532
00081.M2TS 0:20:06.371 0:00:56.514 226 793 472 32 104
00082.M2TS 0:21:02.886 0:09:10.758 2 195 159 040 31 886
00083.M2TS 0:30:13.645 0:01:15.617 306 001 920 32 374
00084.M2TS 0:31:29.262 0:22:39.566 5 477 179 392 32 229
00085.M2TS 0:54:08.828 0:00:11.302 43 431 936 30 740
00086.M2TS 0:54:20.131 0:09:26.399 2 496 958 464 35 268
00087.M2TS 1:03:46.530 0:00:20.437 90 488 832 35 421
00088.M2TS 1:04:06.968 0:03:44.641 884 975 616 31 516
00089.M2TS 1:07:51.609 0:01:17.368 304 619 520 31 498
00090.M2TS 1:09:08.978 0:00:59.684 253 360 128 33 960
00091.M2TS 1:10:08.662 0:04:01.199 1 040 676 864 34 517
00092.M2TS 1:14:09.861 0:01:23.416 384 018 432 36 829
00093.M2TS 1:15:33.278 0:03:02.515 728 739 840 31 942
00094.M2TS 1:18:35.794 0:02:53.840 689 258 496 31 719
00095.M2TS 1:21:29.634 0:00:55.722 221 085 696 31 741
00096.M2TS 1:22:25.356 0:06:32.517 1 566 228 480 31 922
00097.M2TS 1:28:57.874 0:00:14.723 58 675 200 31 882
00098.M2TS 1:29:12.597 0:02:11.130 533 747 712 32 563
00099.M2TS 1:31:23.728 0:01:16.493 319 229 952 33 387
00100.M2TS 1:32:40.221 0:10:09.358 2 548 715 520 33 461
00101.M2TS 1:42:49.579 0:07:04.048 1 405 790 208 26 521

MediaInfo

General
Complete name : D:\Фильмы\My.Millery.2013.DVD5\VIDEO_TS\VTS_01_1.VOB
Format : MPEG-PS
File size : 1 024 MiB
Duration : 26mn 4s
Overall bit rate : 5 490 Kbps
Video
ID : 224 (0xE0)
Format : MPEG Video
Format version : Version 2
Format profile : Main@Main
Format settings, BVOP : Yes
Format settings, Matrix : Custom
Duration : 26mn 4s
Bit rate mode : Variable
Bit rate : 4 485 Kbps
Maximum bit rate : 8 900 Kbps
Width : 720 pixels
Height : 480 pixels
Display aspect ratio : 16:9
Frame rate : 23.976 fps
Standard : NTSC
Color space : YUV
Chroma subsampling : 4:2:0
Bit depth : 8 bits
Scan type : Progressive
Scan order : 2:3 Pulldown
Compression mode : Lossy
Bits/(Pixel*Frame) : 0.541
Stream size : 836 MiB (82%)
Audio #1
ID : 189 (0xBD)-128 (0x80)
Format : AC-3
Format/Info : Audio Coding 3
Mode extension : CM (complete main)
Muxing mode : DVD-Video
Duration : 26mn 4s
Bit rate mode : Constant
Bit rate : 448 Kbps
Channel(s) : 6 channels
Channel positions : Front: L C R, Side: L R, LFE
Sampling rate : 48.0 KHz
Bit depth : 16 bits
Compression mode : Lossy
Stream size : 83.5 MiB (8%)
Audio #2
ID : 189 (0xBD)-129 (0x81)
Format : AC-3
Format/Info : Audio Coding 3
Mode extension : CM (complete main)
Muxing mode : DVD-Video
Duration : 26mn 4s
Bit rate mode : Constant
Bit rate : 448 Kbps
Channel(s) : 6 channels
Channel positions : Front: L C R, Side: L R, LFE
Sampling rate : 48.0 KHz
Bit depth : 16 bits
Compression mode : Lossy
Stream size : 83.5 MiB (8%)
Text #1
ID : 189 (0xBD)-33 (0x21)
Format : RLE
Format/Info : Run-length encoding
Muxing mode : DVD-Video
Duration : 25mn 59s
Delay relative to video : 2s 302ms
Text #2
ID : 189 (0xBD)-34 (0x22)
Format : RLE
Format/Info : Run-length encoding
Muxing mode : DVD-Video
Duration : 25mn 59s
Delay relative to video : 2s 302ms
Text #3
ID : 189 (0xBD)-35 (0x23)
Format : RLE
Format/Info : Run-length encoding
Muxing mode : DVD-Video
Duration : 25mn 59s
Delay relative to video : 2s 135ms
Menu

DVDInfo

Title: My.Millery.2013.DVD5
Size: 4.37 Gb ( 4 580 998,00 KBytes ) - DVD-5
Enabled regions: 1, 2, 3, 4, 5, 6, 7, 8
VTS_01 :
Play Length: 01:49:46
Video: NTSC 16:9 (720x480) VBR, Auto Letterboxed
Audio:
Russian, AC3, 3/2 (L,C,R,SL,SR)+LFE ch, 448 kbps, Delay 0 mSec
English, AC3, 3/2 (L,C,R,SL,SR)+LFE ch, 448 kbps, Delay 0 mSec
Subtitles:
Russian
Russian
Ukrainian
English

Программы, используемые при создании релиза

Видео
ProCoder 3 - конвертация видео
AviSynth - обработка видео
DGDecodeNV - индексирование
Програмы для разборки ремукса/DVD
tsMuxeR - разборка ремукса
Работа со звуком
TranzcodeGUI - извлечение WAV
Sonic Foundry Soft Encode - конвертация из формата WAV в AC3
Работа с меню и реавторинг
DVD-lab PRO 2 - реавторинг диска
Adobe Photoshop - редактирование меню

-
-

Скриншоты меню

Скриншоты


_________________
Показать сообщения:    

Текущее время: Сегодня 13:11

Часовой пояс: GMT



Вы не можете начинать темы
Вы не можете отвечать на сообщения
Вы не можете редактировать свои сообщения
Вы не можете удалять свои сообщения
Вы не можете голосовать в опросах
Вы не можете прикреплять файлы к сообщениям
Вы не можете скачивать файлы
Наши партнеры: интернет магазин Ивановского трикотажа textilla.ru