Ивановский Торрент трекер
Яндекс.Погода
 

[Цитировать]
димитри37

Мы из джаза -Жанр: комедия, музыкальный
Год выпуска: 1983
Продолжительность: 01:27:56-Режиссёр: Карен Шахназаров-В ролях: Игорь Скляр, Александр Панкратов-Чёрный (вокал - Владимир Шевцик), Николай Аверюшкин, Пётр Щербаков, Евгений Евстигнеев, Леонид Куравлёв, Борислав Брондуков, Елена Цыплакова (вокал - Ольга Пирагс), Лариса Долина, Юрий Васильев, Вадим Александров, Виталий Бобров, Георгий Бахчиев, Борис Гитин, Юрий Гусев, Николай Кочегаров, Олег Казанчеев, Ирина Мазур, Пётр Меркурьев, Григорий Маликов, Владимир Пицек, Александр Пятков, Вячеслав Пацап, Пётр Складчиков, Олег Савосин, Равиль Садыков, Евгений Семёнов, Карен Чахирьян, Игорь Шубин, Леонид Янков, Николай Симкин, Александр Звенигорский, Жанна Александрова, Александр Горбачёв, Евгений Кулешов, Александр Малышев, Олег Банников, Михаил Белинсон, Анатолий Кролл-Описание: Советская Россия, 1920-е годы, времена НЭПа. Студента Одесского музыкального техникума Костю Иванова увлекает новое направление в музыке — джаз. За это увлечение его, комсомольца, выгоняют из техникума, предлагая на выбор — учёба или любимая музыка. Константин выбирает джаз. Костя хочет создать свой джаз-банд. По объявлению к нему приходят два друга-музыканта — Стёпа и Жора. Стёпа играет на банджо, а Жора — на барабанах. Константин заинтересовывает их джазом, и новоиспечённый джаз-банд начинает репетиции…-Доп. информация:

Качество видео: BDRip
Формат видео: AVI
Видео: 720 x 528 (1.36:1), 23.976 fps, XviD build 50 ~1975 kbps avg, 0.22 bit/pixel
Аудио: 48 kHz, AC3 Dolby Digital, 3/2 (L,C,R,l,r) + LFE ch, 384.00 kbps avg

Знаете ли вы, что...

  • Лидер проката в СССР 1983 года — 17,1 млн. зрителей.
  • В фильме использованы исторические записи музыки 1920-х годов.
  • Роль Кости Иванова первоначально предназначалась для Дмитрия Харатьяна.

MediaInfo

Format                           : AVI
Format/Info                      : Audio Video Interleave
File size                        : 1.46 GiB
Duration                         : 1h 27mn
Overall bit rate                 : 2 369 Kbps
Movie name                       : Мы из джаза / My iz dzhaza (1983)
Director                         : MECHANICAL ENGINEER (Blu-Ray)
Writing application              : VirtualDubMod 1.5.10.3 (build 2550/release)
Copyright                        : HQ-ViDEO
Comment                          : 15.03.2011
Video
ID                               : 0
Format                           : MPEG-4 Visual
Format profile                   : Advanced Simple@L5
Format settings, BVOP            : Yes
Format settings, QPel            : No
Format settings, GMC             : No warppoints
Format settings, Matrix          : Custom
Codec ID                         : XVID
Codec ID/Hint                    : XviD
Duration                         : 1h 27mn
Bit rate                         : 1 976 Kbps
Width                            : 720 pixels
Height                           : 528 pixels
Display aspect ratio             : 4:3
Frame rate                       : 23.976 fps
Color space                      : YUV
Chroma subsampling               : 4:2:0
Bit depth                        : 8 bits
Scan type                        : Progressive
Bits/(Pixel*Frame)               : 0.217
Stream size                      : 1.21 GiB (83%)
Writing library                  : XviD 1.2.1 (UTC 2008-12-04)
Audio
ID                               : 1
Format                           : AC-3
Format/Info                      : Audio Coding 3
Mode extension                   : CM (complete main)
Codec ID                         : 2000
Duration                         : 1h 27mn
Bit rate mode                    : Constant
Bit rate                         : 384 Kbps
Channel(s)                       : 6 channels
Channel positions                : Front: L C R, Side: L R, LFE
Sampling rate                    : 48.0 KHz
Bit depth                        : 16 bits
Stream size                      : 242 MiB (16%)
Alignment                        : Split accross interleaves
Interleave, duration             : 42 ms (1.00 video frame)
Interleave, preload duration     : 500 ms

Скриншоты


Сравнения

http://rutracker.org/forum/viewtopic.php?t=3157925 - с конкурентом
http://screenshotcomparison.com/comparison/8634/ - артефакты, цветокорекция, шарп, перекроп (верх, низ), размер файла не соответствует тех. требованиям
http://screenshotcomparison.com/comparison/8666/ - сравнение рипа конкурента с исходником--http://rutracker.org/forum/viewtopic.php?t=165189 - с конкурентом
http://screenshotcomparison.com/comparison/8641/ - битрейт видео не соответствует правилам
http://screenshotcomparison.com/comparison/8649--http://rutracker.org/forum/viewtopic.php?t=2887389 - с конкурентом
http://screenshotcomparison.com/comparison/8650
-


Показать сообщения:    

Текущее время: 17-Дек 17:55

Часовой пояс: UTC ± 0


Вы не можете начинать темы
Вы не можете отвечать на сообщения
Вы не можете редактировать свои сообщения
Вы не можете удалять свои сообщения
Вы не можете голосовать в опросах
Вы не можете прикреплять файлы к сообщениям
Вы не можете скачивать файлы

!ВНИМАНИЕ!
Сайт не предоставляет электронные версии произведений, а занимается лишь коллекционированием и каталогизацией ссылок, присылаемых и публикуемых на форуме нашими читателями. Если вы являетесь правообладателем какого-либо представленного материала и не желаете, чтобы ссылка на него находилась в нашем каталоге, свяжитесь с нами, и мы незамедлительно удалим ее. Файлы для обмена на трекере предоставлены пользователями сайта, и администрация не несет ответственности за их содержание. Просьба не заливать файлы, защищенные авторскими правами, а также файлы нелегального содержания!