Важное объявление!
У Нас Все раздачи мультитрекерные, при нуле пиров в релизах, можете смело вставать на закачку!
 
Автор Сообщение

HUNTER

Стаж:
4 года 9 месяцев
Сообщений:
65021

Репутация: 101

[+] [-]
Вне форума [Профиль] [ЛС]

Мушкетеры / The Three Musketeers
Название: Мушкетеры
Оригинальное название: The Three Musketeers
Год выпуска: 2011
Страна: США, Германия, Франция, Великобритания
Жанр: боевик, приключения
Продолжительность: 01:53:13
Перевод: Профессиональное (полное дублирование) [лицензия]
Режиссер: Пол У. С. Андерсон / Paul W.S. Anderson
В ролях: Милла Йовович, Орландо Блум, Тиль Швайгер, Кристоф Вальц, Логан Лерман, Мэтью Макфейден, Рэй Стивенсон, Люк Эванс, Мадс Миккельсен, Габриэлла Уайлд
Описание: Молодой д’Артаньян покинул родной дом и отправился в Париж, надеясь на место в полку мушкетёров. По случайности в один день он обидел сразу троих мушкетёров — Атоса, Портоса и Арамиса — и получил от всех троих вызовы на дуэль. Но дуэль была прервана появлением гвардейцев кардинала, которые хотели арестовать их за нарушение указа о запрете дуэлей. Д’Артаньян и три мушкетера победили превосходящего противника и стали друзьями. Теперь они должны остановить злобного Кардинала Ришелье и столкнутся с герцогом Бэкингемом, и предательницей Миледи Де Винтер.
Качество: BDRip 720p
Формат: mkv
Видео кодек: x264
Аудио кодек: AC3, DTS
Видео: x.264, NTSC 23.976, 1280х544, 4000 кбит/с
Аудио #1: Русский (Дублированный), AC3, 6ch (L, C, R, Ls, Rs +LFE), 448 кбит/с
Аудио #2: Украинский (Профессиональный (многоголосый)), AC3, 2ch (L,R), 448 кбит/с
Аудио #3: Английский (Оригинал), DTS, 6ch (L, C, R, Ls, Rs +LFE), 1510 кбит/с

кинопоиск

MI

Общее
Уникальный идентификатор : 192627043035013018962390473904100091317 (0x90EA9E789E4C7DFF86F73132BDFA25B5)
Полное имя : F:\Кино\720p\The.Three.Musketeers.2011.720p.BDRip.x264.mkv
Формат : Matroska
Версия формата : Version 2
Размер файла : 4,95 Гбайт
Продолжительность : 1 ч. 50 м.
Общий поток : 6407 Кбит/сек
Название фильма : Andrei
Дата кодирования : UTC 2012-02-11 21:53:28
Программа кодирования : mkvmerge v4.6.0 ('Still Crazy After All These Years') сборка от Mar 10 2011 02:50:32
Библиотека кодирования : libebml v1.2.0 + libmatroska v1.1.0
Видео
Идентификатор : 1
Формат : AVC
Формат/Информация : Advanced Video Codec
Профиль формата : [url=mailto:High@L4.1]High@L4.1[/url]
Параметр CABAC формата : Да
Параметр ReFrames формата : 12 кадров
Идентификатор кодека : V_MPEG4/ISO/AVC
Продолжительность : 1 ч. 50 м.
Битрейт : 4000 Кбит/сек
Ширина : 1280 пикселей
Высота : 544 пикселя
Соотношение сторон : 2,35:1
Частота кадров : 23,976 кадра/сек
Цветовое пространство : YUV
Субдискретизация насыщенности : 4:2:0
Битовая глубина : 8 бит
Тип развёртки : Прогрессивная
Бит/(Пиксели*Кадры) : 0.240
Размер потока : 2,99 Гбайт (60%)
Заголовок : The.Three.Musketeers.2011.720p.BDRip.x264
Библиотека кодирования : x264 core 120 r2146 bcd41db
Настройки программы : cabac=1 / ref=12 / deblock=1:-2:-2 / analyse=0x3:0x113 / me=umh / subme=8 / psy=1 / psy_rd=1.00:0.15 / mixed_ref=1 / me_range=16 / chroma_me=1 / trellis=1 / 8x8dct=1 / cqm=0 / deadzone=21,11 / fast_pskip=1 / chroma_qp_offset=-3 / threads=6 / sliced_threads=0 / nr=0 / decimate=1 / interlaced=0 / bluray_compat=0 / constrained_intra=0 / bframes=8 / b_pyramid=2 / b_adapt=2 / b_bias=0 / direct=3 / weightb=1 / open_gop=0 / weightp=2 / keyint=240 / keyint_min=23 / scenecut=40 / intra_refresh=0 / rc_lookahead=50 / rc=2pass / mbtree=1 / bitrate=4000 / ratetol=1.0 / qcomp=0.60 / qpmin=0 / qpmax=69 / qpstep=4 / cplxblur=20.0 / qblur=0.5 / ip_ratio=1.40 / aq=1:1.00
Язык : English
Аудио #1
Идентификатор : 2
Формат : AC-3
Формат/Информация : Audio Coding 3
Расширение режима : CM (complete main)
Идентификатор кодека : A_AC3
Продолжительность : 1 ч. 50 м.
Вид битрейта : Постоянный
Битрейт : 448 Кбит/сек
Каналы : 6 каналов
Расположение каналов : Front: L C R, Side: L R, LFE
Частота : 48,0 КГц
Битовая глубина : 16 бит
Метод сжатия : С потерями
Размер потока : 354 Мбайт (7%)
Заголовок : AC3 / 5.1 / 448 kbps |Дубляж, R5|
Язык : Russian
Аудио #2
Идентификатор : 3
Формат : AC-3
Формат/Информация : Audio Coding 3
Расширение режима : CM (complete main)
Идентификатор кодека : A_AC3
Продолжительность : 1 ч. 50 м.
Вид битрейта : Постоянный
Битрейт : 448 Кбит/сек
Каналы : 2 канала
Расположение каналов : Front: L R
Частота : 48,0 КГц
Битовая глубина : 16 бит
Метод сжатия : С потерями
Размер потока : 354 Мбайт (7%)
Заголовок : AC3 / 2.0 / 448 kbps |MVO|
Язык : Ukrainian
Аудио #3
Идентификатор : 4
Формат : DTS
Формат/Информация : Digital Theater Systems
Идентификатор кодека : A_DTS
Продолжительность : 1 ч. 50 м.
Вид битрейта : Постоянный
Битрейт : 1510 Кбит/сек
Каналы : 6 каналов
Расположение каналов : Front: L C R, Side: L R, LFE
Частота : 48,0 КГц
Битовая глубина : 24 бит
Метод сжатия : С потерями
Размер потока : 1,17 Гбайт (24%)
Заголовок : DTS / 5.1 / 1509 kbps
Язык : English

log

---[NoImage] x264 [info]: frame I:1806 Avg QP:13.86 size:167261
---[NoImage] x264 [info]: frame P:36466 Avg QP:16.94 size: 50931
---[NoImage] x264 [info]: frame B:120748 Avg QP:20.64 size: 9578

Source vs Encode




_________________
Показать сообщения:    

Текущее время: Сегодня 17:23

Часовой пояс: GMT



Вы не можете начинать темы
Вы не можете отвечать на сообщения
Вы не можете редактировать свои сообщения
Вы не можете удалять свои сообщения
Вы не можете голосовать в опросах
Вы не можете прикреплять файлы к сообщениям
Вы не можете скачивать файлы