Важное объявление!
У Нас Все раздачи мультитрекерные, при нуле пиров в релизах, можете смело вставать на закачку!
 
Автор Сообщение

HUNTER

Стаж:
4 года 8 месяцев
Сообщений:
62091

Репутация: 101

[+] [-]
Вне форума [Профиль] [ЛС]

Мушкетеры / The Three Musketeers-
Страна: США, Германия, Франция, Великобритания
Жанр: боевик, приключения
Год выпуска: 2011
Продолжительность: 01:50:31
Перевод: Профессиональный (дублированный)
Русские субтитры: есть
Оригинальная аудиодорожка: английский-Режиссер: Пол У. С. Андерсон / Paul W.S. Anderson
В ролях: Логан Лерман, Милла Йовович, Мэтью Макфейден, Рэй Стивенсон, Люк Эванс, Мадс Миккельсен, Габриэлла Уайлд, Джеймс Корден, Джуно Темпл, Фредди Фокс.
Описание: Молодой д’Артаньян покинул родной дом и отправился в Париж, надеясь на место в полку мушкетёров. По случайности в один день он обидел сразу троих мушкетёров — Атоса, Портоса и Арамиса — и получил от всех троих вызовы на дуэль. Но дуэль была прервана появлением гвардейцев кардинала, которые хотели арестовать их за нарушение указа о запрете дуэлей. Д’Артаньян и три мушкетера победили превосходящего противника и стали друзьями. Теперь они должны остановить злобного Кардинала Ришелье и столкнутся с герцогом Бэкингемом, и предательницей Миледи Де Винтер.
-
  • Релиз HDClub by Lostik
  • Сохранены оригинальные чаптеры как на Blu-ray
  • Дорожка №2 получена наложением чистого голоса на центр декодированного DTS-HD HR
  • За перевод Сербина спасибо пользователям форума e180: Ramis, пуля, dir, carnivale, Bilko, dr_akula-Тип релиза: BDRip 1080p (The Three Musketeers 2011 Blu-ray GER 1080p)
    Контейнер: MKV | Sample
    Видео: 1920x816 (2.35:1), 23.976 fps, x264@L4.1 ~12000 kbps
    Аудио 1: Russian 48 kHz, DTS, 3/2 (L,C,R,l,r) + LFE ch, 1509.00 kbps avg | Дубляж BD
    Аудио 2: Russian 48 kHz, DTS, 3/2 (L,C,R,l,r) + LFE ch, 1509.00 kbps avg | Одноголосый закадровый AVO Сербин
    Аудио 3: Ukrainian 48 kHz, AC3, 2/0 (L,R) ch, 192.00 kbps avg | Двухголосый закадровый Интер Фильм
    Аудио 4: English 48 kHz, DTS, 3/2 (L,C,R,l,r) + LFE ch, 1509.00 kbps avg | Original
    Аудио 5: English 48 kHz, AC3, 2/0 (L,R) ch, 192.00 kbps avg | Commentary with Paul W.S. Anderson, Jeremy Bolt and Robert Kulzer
    Субтитры: русские полные R5, русские полные notabenoid, английские полные

    Инфо

    Format : Matroska
    File size : 13.1 GiB
    Duration : 1h 50mn
    Overall bit rate : 16.9 Mbps
    Movie name : Release for HDCLUB by Lostik
    Encoded date : UTC 2012-04-28 13:43:51
    Writing application : mkvmerge v5.2.0 ('I can't explain') built on Dec 18 2011 18:12:03
    Writing library : libebml v1.2.3 + libmatroska v1.3.0
    Video
    ID : 1
    Format : AVC
    Format/Info : Advanced Video Codec
    Format profile : High@L4.1
    Format settings, CABAC : Yes
    Format settings, ReFrames : 5 frames
    Codec ID : V_MPEG4/ISO/AVC
    Duration : 1h 50mn
    Bit rate : 12.0 Mbps
    Width : 1 920 pixels
    Height : 816 pixels
    Display aspect ratio : 2.35:1
    Frame rate : 23.976 fps
    Color space : YUV
    Chroma subsampling : 4:2:0
    Bit depth : 8 bits
    Scan type : Progressive
    Bits/(Pixel*Frame) : 0.319
    Stream size : 9.00 GiB (69%)
    Title : The Three Musketeers (2011)
    Writing library : x264 core 120 r2146 bcd41db
    Encoding settings : cabac=1 / ref=5 / deblock=1:-3:-3 / analyse=0x3:0x133 / me=umh / subme=10 / psy=1 / psy_rd=1.00:0.00 / mixed_ref=1 / me_range=64 / chroma_me=1 / trellis=2 / 8x8dct=1 / cqm=0 / deadzone=21,11 / fast_pskip=0 / chroma_qp_offset=-2 / threads=12 / sliced_threads=0 / nr=0 / decimate=0 / interlaced=0 / bluray_compat=0 / constrained_intra=0 / bframes=8 / b_pyramid=2 / b_adapt=2 / b_bias=0 / direct=3 / weightb=1 / open_gop=0 / weightp=2 / keyint=240 / keyint_min=24 / scenecut=40 / intra_refresh=0 / rc=2pass / mbtree=0 / bitrate=12000 / ratetol=1.0 / qcomp=0.70 / qpmin=0 / qpmax=69 / qpstep=4 / cplxblur=20.0 / qblur=0.5 / ip_ratio=1.40 / pb_ratio=1.20 / aq=1:1.20
    Language : English
    Audio #1
    ID : 2
    Format : DTS
    Format/Info : Digital Theater Systems
    Codec ID : A_DTS
    Duration : 1h 50mn
    Bit rate mode : Constant
    Bit rate : 1 510 Kbps
    Channel(s) : 6 channels
    Channel positions : Front: L C R, Side: L R, LFE
    Sampling rate : 48.0 KHz
    Bit depth : 16 bits
    Stream size : 1.17 GiB (9%)
    Title : Дубляж, Blu-ray
    Language : Russian
    Audio #2
    ID : 3
    Format : DTS
    Format/Info : Digital Theater Systems
    Codec ID : A_DTS
    Duration : 1h 50mn
    Bit rate mode : Constant
    Bit rate : 1 510 Kbps
    Channel(s) : 6 channels
    Channel positions : Front: L C R, Side: L R, LFE
    Sampling rate : 48.0 KHz
    Bit depth : 24 bits
    Stream size : 1.17 GiB (9%)
    Title : Одноголосый, Ю.Сербин
    Language : Russian
    Audio #3
    ID : 4
    Format : AC-3
    Format/Info : Audio Coding 3
    Mode extension : CM (complete main)
    Codec ID : A_AC3
    Duration : 1h 50mn
    Bit rate mode : Constant
    Bit rate : 192 Kbps
    Channel(s) : 2 channels
    Channel positions : Front: L R
    Sampling rate : 48.0 KHz
    Bit depth : 16 bits
    Stream size : 152 MiB (1%)
    Title : Двухголосый, Интер Фильм
    Language : Ukrainian
    Audio #4
    ID : 5
    Format : DTS
    Format/Info : Digital Theater Systems
    Codec ID : A_DTS
    Duration : 1h 50mn
    Bit rate mode : Constant
    Bit rate : 1 510 Kbps
    Channel(s) : 6 channels
    Channel positions : Front: L C R, Side: L R, LFE
    Sampling rate : 48.0 KHz
    Bit depth : 24 bits
    Stream size : 1.17 GiB (9%)
    Language : English
    Audio #5
    ID : 6
    Format : AC-3
    Format/Info : Audio Coding 3
    Mode extension : CM (complete main)
    Codec ID : A_AC3
    Duration : 1h 50mn
    Bit rate mode : Constant
    Bit rate : 224 Kbps
    Channel(s) : 2 channels
    Channel positions : Front: L R
    Sampling rate : 48.0 KHz
    Bit depth : 16 bits
    Stream size : 177 MiB (1%)
    Title : Commentary
    Language : English
    Text #1
    ID : 7
    Format : UTF-8
    Codec ID : S_TEXT/UTF8
    Codec ID/Info : UTF-8 Plain Text
    Title : Full, R5
    Language : Russian
    Text #2
    ID : 8
    Format : UTF-8
    Codec ID : S_TEXT/UTF8
    Codec ID/Info : UTF-8 Plain Text
    Title : Notabenoid
    Language : Russian
    Text #3
    ID : 9
    Format : UTF-8
    Codec ID : S_TEXT/UTF8
    Codec ID/Info : UTF-8 Plain Text
    Title : Full
    Language : English
    Menu
    00:00:00.000 : en:Chapter 01
    00:06:09.786 : en:Chapter 02
    00:12:20.406 : en:Chapter 03
    00:17:31.592 : en:Chapter 04
    00:23:52.181 : en:Chapter 05
    00:31:28.678 : en:Chapter 06
    00:35:56.488 : en:Chapter 07
    00:42:31.549 : en:Chapter 08
    00:47:04.613 : en:Chapter 09
    00:53:17.319 : en:Chapter 10
    00:59:14.634 : en:Chapter 11
    01:04:40.043 : en:Chapter 12
    01:08:33.109 : en:Chapter 13
    01:14:24.418 : en:Chapter 14
    01:21:04.610 : en:Chapter 15
    01:27:36.918 : en:Chapter 16
    01:36:09.681 : en:Chapter 17
    01:42:27.433 : en:Chapter 18

    Скриншоты


  • _________________
    Показать сообщения:    

    Текущее время: Сегодня 16:25

    Часовой пояс: GMT



    Вы не можете начинать темы
    Вы не можете отвечать на сообщения
    Вы не можете редактировать свои сообщения
    Вы не можете удалять свои сообщения
    Вы не можете голосовать в опросах
    Вы не можете прикреплять файлы к сообщениям
    Вы не можете скачивать файлы
    Наши партнеры: интернет магазин Ивановского трикотажа textilla.ru