Мускулы на пляже / Muscle Beach Party (Уильям Эшер / William Asher) [1964, США, мюзикл, комедия, HDTV 1080i] DVO (НТВ+) + Original Eng :: Ивановский Торрент трекер
Важное объявление!
У Нас Все раздачи мультитрекерные, при нуле пиров в релизах, можете смело вставать на закачку!
 
Автор Сообщение

HUNTER

Стаж:
4 года 11 месяцев
Сообщений:
66051

Репутация: 101

[+] [-]
Вне форума [Профиль] [ЛС]

Мускулы на пляже / Muscle Beach Party-
Страна: США
Студия: Alta Vista Productions
Жанр: мюзикл, комедия
Год выпуска: 1964
Продолжительность: 01:30:44-Перевод: Профессиональный (двухголосый закадровый) НТВ+ /Елена Борзунова, Игорь Тарадайкин/
Cубтитры: нет
Оригинальная аудиодорожка: английский-Режиссер: Уильям Эшер / William Asher
В ролях: Фрэнки Авалон, Аннетт Фуничелло, Лучана Палуцци, Джон Эшли, Дон Риклс, Джоди МакКри, Кэнди Джонсон, Делорес Уэллс, Донна Лорен, Мори Амстердам, Стиви Уандер, Питер Лорр...- | Релиз: -Описание: Фрэнки, Диди и их друзья приезжают на полюбившийся им пляж и обнаруживают, что здесь же отдыхает группа бодибилдеров, с которыми у них отношения не ахти. Кроме того, появляется итальянская графиня Джулия, которая "кладет глаз" на Фрэнки...-Семпл: http://sendfile.su/1136180-Тип релиза: HDTV 1080i
Контейнер: TS
Видео: 1920x1080i (16:9), 25.000 fps, AVC, ~6079 Kbps, 0.117 bits/pixel
Аудио 1: Русский, 48.0 KHz, MPEG-1 Audio layer 2, 2 ch, 192 kbps
Аудио 2: English, 48.0 KHz, MPEG-1 Audio layer 2, 2 ch, 192 kbps

MediaInfo

GeneralID : 1 (0x1)Complete name : Muscle Beach Party 1964 MGMHD 1080i.rus.eng.tsFormat : MPEG-TSFile size : 4.31 GiBDuration : 1h 30mnOverall bit rate mode : VariableOverall bit rate : 6 803 KbpsMaximum Overall bit rate : 35.5 Mbps
VideoID : 4113 (0x1011)Menu ID : 1 (0x1)Format : AVCFormat/Info : Advanced Video CodecFormat profile : Main@L4Format settings, CABAC : YesFormat settings, ReFrames : 4 framesCodec ID : 27Duration : 1h 30mnBit rate : 6 079 KbpsWidth : 1 920 pixelsHeight : 1 080 pixelsDisplay aspect ratio : 16:9Frame rate : 25.000 fpsStandard : ComponentColor space : YUVChroma subsampling : 4:2:0Bit depth : 8 bitsScan type : InterlacedScan order : Top Field FirstBits/(Pixel*Frame) : 0.117Stream size : 3.85 GiB (89%)Color range : LimitedColor primaries : BT.709Transfer characteristics : BT.709Matrix coefficients : BT.709
Audio #1ID : 4352 (0x1100)Menu ID : 1 (0x1)Format : MPEG AudioFormat version : Version 1Format profile : Layer 2Codec ID : 4Duration : 1h 30mnBit rate mode : ConstantBit rate : 192 KbpsChannel(s) : 2 channelsSampling rate : 48.0 KHzCompression mode : LossyStream size : 125 MiB (3%)Language : Russian
Audio #2ID : 4353 (0x1101)Menu ID : 1 (0x1)Format : MPEG AudioFormat version : Version 1Format profile : Layer 2Codec ID : 4Duration : 1h 30mnBit rate mode : ConstantBit rate : 192 KbpsChannel(s) : 2 channelsSampling rate : 48.0 KHzCompression mode : LossyStream size : 125 MiB (3%)Language : English

Скриншоты


_________________
Показать сообщения:    

Текущее время: Сегодня 05:28

Часовой пояс: GMT



Вы не можете начинать темы
Вы не можете отвечать на сообщения
Вы не можете редактировать свои сообщения
Вы не можете удалять свои сообщения
Вы не можете голосовать в опросах
Вы не можете прикреплять файлы к сообщениям
Вы не можете скачивать файлы