Ивановский Торрент трекер
Яндекс.Погода
 

[Цитировать]
HUNTER

Музей космонавтики
Дата/Год выпуска: 2013
Страна: Россия
Жанр: научно-познавательский
Продолжительность: 00:21:52
Перевод: Не требуется
Русские субтитры: нет
Оригинальная аудиодорожка: русский
Телеканал: Телестудия "Единая медиагруппа", ТК "Наука 2.0"
Описание: В Музее космонавтики можно примерить скафандр и даже слетать в нем к другим планетам, увидеть настоящую МКС и частицы грунта Луны. Что такое "космическая сказка"? Откуда в музее самовар в виде первого искусственного спутника Земли? Правда ли, что космонавты на орбите встречают рассвет 16 раз? Об этом в познавательном фильме.
качество: SATRip
формат: AVI
Видео: MPEG4, XviD, 720x400 (16:9), 25.000 fps, 1 499 Kbps (0.208 bit/pixel)
Аудио: AC-3, 48.0 KHz, 2 ch, 128 Kbps, CBR

MediaInfo

GeneralComplete name : G:\документалка\Музей космонавтики.aviFormat : AVIFormat/Info : Audio Video InterleaveFile size : 256 MiBDuration : 21mn 52sOverall bit rate : 1 637 KbpsDirector : SATRip by ThunderWriting application : VirtualDubMod 1.5.10.3 | www.virtualdub-fr.org || (build 2550/release)Original source form/Name : Documentary
VideoID : 0Format : MPEG-4 VisualFormat profile : Advanced Simple@L5Format settings, BVOP : 2Format settings, QPel : NoFormat settings, GMC : No warppointsFormat settings, Matrix : Default (H.263)Codec ID : XVIDCodec ID/Hint : XviDDuration : 21mn 52sBit rate : 1 499 KbpsWidth : 720 pixelsHeight : 400 pixelsDisplay aspect ratio : 16:9Frame rate : 25.000 fpsColor space : YUVChroma subsampling : 4:2:0Bit depth : 8 bitsScan type : ProgressiveCompression mode : LossyBits/(Pixel*Frame) : 0.208Stream size : 234 MiB (92%)Writing library : XviD 1.2.1 (UTC 2008-12-04)
AudioID : 1Format : AC-3Format/Info : Audio Coding 3Mode extension : CM (complete main)Format settings, Endianness : BigCodec ID : 2000Duration : 21mn 52sBit rate mode : ConstantBit rate : 128 KbpsChannel(s) : 2 channelsChannel positions : Front: L RSampling rate : 48.0 KHzBit depth : 16 bitsCompression mode : LossyStream size : 20.0 MiB (8%)Alignment : Split accross interleavesInterleave, duration : 40 ms (1.00 video frame)Interleave, preload duration : 500 ms

Скриншоты

0 человек читают эту тему: 0 пользователей, 0 скрытых пользователей, 0 гостей

Показать сообщения:    

Текущее время: 23-Авг 20:33

Часовой пояс: UTC - 1


Вы не можете начинать темы
Вы не можете отвечать на сообщения
Вы не можете редактировать свои сообщения
Вы не можете удалять свои сообщения
Вы не можете голосовать в опросах
Вы не можете прикреплять файлы к сообщениям
Вы не можете скачивать файлы

!ВНИМАНИЕ!
Сайт не предоставляет электронные версии произведений, а занимается лишь коллекционированием и каталогизацией ссылок, присылаемых и публикуемых на форуме нашими читателями. Если вы являетесь правообладателем какого-либо представленного материала и не желаете, чтобы ссылка на него находилась в нашем каталоге, свяжитесь с нами, и мы незамедлительно удалим ее. Файлы для обмена на трекере предоставлены пользователями сайта, и администрация не несет ответственности за их содержание. Просьба не заливать файлы, защищенные авторскими правами, а также файлы нелегального содержания!